img image001 image001 image001 image001 image001 image001 image001 image001 image001 image001 image001 image001 image001 image001 image001

Planets Sun Sun Sun
Статистика раздачи
Автор: Nickolas3434 | Размер: 744.36 МБ | Добавлен: 17 сен 2014
Раздают: 175    Качают: 13
Скачать торрент
Скачать торрент
Описание торрента

СообщениеДобавлено: 17 сен 2014 

Страна: Россия
Жанр: мультфильм, короткометражка, комедия, семейный
Год выпуска: 1999-2000
Продолжительность: 01:44:04 (4 серии по 00:26:01 минут)

Перевод: не требуется
Оригинальная аудиодорожка: русский
Cубтитры: нет

Режиссеры: Александр Макаров, Илья Максимов

Роли озвучивали:
Михаил Боярский, Вадим Гущин, Татьяна Михалевкина, Гелий Сысоев, Михаил Черняк, Юлия Бочанова, Эра Зиганшина, Анатолий Петров, Ян Цапник, Елена Шульман...

Описание:
Ураган переносит девочку Долли и щенка Тотошку из Канзаса в Волшебную страну, где жизнь не подчиняется обычным законам и возможны любые чудеса. Вместе с новыми друзьями: Соломенным Страшилой, Железным Дровосеком и Трусливым Львом — они направляются к Волшебнику Изумрудного Города, который может помочь ей вернуться домой. Волшебник соглашается исполнить по одному желанию каждого из друзей, но сначала они должны победить злую колдунью…





Исходник: DVD9 R5
Тип релиза: DVDRip
Контейнер: AVI

Видео: 576х432, (4:3), 25 fps, XviD ~ 863 kbps avg, 0.139 bit/pixel
Аудио: 48 kHz, MP3 2.0, 128 kbps

Раздача от:

01. Серебрянные туфельки (00:26:01)
02. Тайна великого волшебника (00:26:01)
03. Козни старой Момби (00:26:01)
04. Принцесса Озма (00:26:01)


Общее
Полное имя : Priklyucheniya.v.izumrudnom.gorode.1999.DVDRip-745_[New-team]_by_AVP_Studio.avi
Формат : AVI
Формат/Информация : Audio Video Interleave
Размер файла : 186 Мбайт
Продолжительность : 26 м.
Общий поток : 1001 Кбит/сек
Программа кодирования : VirtualDubModRus 1.5.10.2 (build 2542/release)
Библиотека кодирования : VirtualDubMod build 2542/release

Видео
Идентификатор : 0
Формат : MPEG-4 Visual
Профиль формата : Advanced Simple@L5
Параметр BVOP формата : 1
Параметр QPel формата : Нет
Параметр GMC формата : Без точки перехода
Параметр матрицы формата : Выборочная
Идентификатор кодека : XVID
Идентификатор кодека/Подсказка : XviD
Продолжительность : 26 м.
Битрейт : 863 Кбит/сек
Ширина : 576 пикселей
Высота : 432 пикселя
Соотношение сторон : 4:3
Частота кадров : 25,000 кадров/сек
Цветовое пространство : YUV
Субдискретизация насыщенности : 4:2:0
Битовая глубина : 8 бит
Тип развёртки : Прогрессивная
Метод сжатия : С потерями
Бит/(Пиксели*Кадры) : 0.139
Размер потока : 161 Мбайт (86%)
Библиотека кодирования : XviD 73

Аудио
Идентификатор : 1
Формат : MPEG Audio
Версия формата : Version 1
Профиль формата : Layer 3
Идентификатор кодека : 55
Идентификатор кодека/Подсказка : MP3
Продолжительность : 26 м.
Вид битрейта : Постоянный
Битрейт : 128 Кбит/сек
Каналы : 2 канала
Частота : 48,0 КГц
Метод сжатия : С потерями
Размер потока : 23,8 Мбайт (13%)
Выравнивание : Соединение по промежуткам
Продолжительность промежутка : 40 мс. (1,00 видеокадр)
Время предзагрузки промежутка : 504 мс.
Библиотека кодирования : LAME3.99r
Настройки программы : -m s -V 4 -q 2 -lowpass 17 -b 128





   Похожие торренты   Торрент   Размер 
В этой теме нет новых непрочитанных сообщений. Приключения в изумрудном городе (1999-2000) DVDRip-AVC от New-Team

382 | 21

1.46 ГБ

В этой теме нет новых непрочитанных сообщений. Приключения в изумрудном городе (1999-2000) DVDRip от New-Team

109 | 8

1.46 ГБ

В этой теме нет новых непрочитанных сообщений. Приключения в городе, которого нет (1974) DVDRip

13 | 3

1.36 ГБ

В этой теме нет новых непрочитанных сообщений. В городе все спокойно / La ville est tranquille (2000) DVDRip | A

13 | 0

1.46 ГБ

В этой теме нет новых непрочитанных сообщений. Фантоцци 2000 - Клонирование / Fantozzi 2000 - la clonazione (1999) DVDRip

78 | 5

786.16 МБ

В этой теме нет новых непрочитанных сообщений. Фантоцци 2000. Клонирование / Fantozzi 2000 - la clonazione (1999) DVDRip

178 | 15

1.23 ГБ

В этой теме нет новых непрочитанных сообщений. Любовь в большом городе 3 (2014) DVDRip от New-Team

125 | 8

746.9 МБ




Вы не можете начинать темы
Вы не можете отвечать на сообщения
Вы не можете редактировать свои сообщения
Вы не можете удалять свои сообщения
Вы не можете добавлять вложения

Перейти:  
Для Мосгорсуда, Роскомнадзора и рекламодателей: mosgorsud-torrent[собачка]yandex.ru
 Вход
ppkBB3cker v.2 © 2008-2014 @ PPK
[ Time : 91.804s | 17 Queries | GZIP : Off ]
CGP output time : 0.028s | 5 Queries | GZIP : Off

Торрент трекер RUTOR.IN, Не можете зайти на rutor.org? Какой новый адрес рутор? Какое зеркало рутор? Не работает rutor.org и зеркала? Тогда наш торрент специально для вас. Rutor.in неофициальное зеркало rutor. В случае если у Вас заблокирован rutor или вдруг Вы не можете на него зайти, то Вы без труда сможете скачать бесплатно и без рекламы последние новинки кино, игр, сериалов и прочего у нас, на Rutor.in. Не нужно использовать прокси, чтобы зайти на рутор, достаточно воспользоваться нашим ресурсом. Все новые фильмы, игры, сериалы, книги и музыка за 2013 и 2014 годы через торрент бесплатно. Скачивайте фильмы в хорошем качестве, игры для пк, xbox, playstation без регистрации. У нас вы найдете новые Зарубежные сериалы и Русские сериалы 2013, 2014, 2015 годов. Оставайтесь с нами, качайте любимые фильмы, игры, сериалы, книги и музыку.