img image001 image001 image001 image001 image001 image001 image001 image001 image001 image001 image001 image001 image001 image001 image001

Planets Sun Sun Sun
Статистика раздачи
Автор: Nickolas3434 | Размер: 1.46 ГБ | Добавлен: 17 сен 2014
Раздают: 414    Качают: 25
Скачать торрент
Скачать торрент
Описание торрента

СообщениеДобавлено: 17 сен 2014 

Страна: Россия
Жанр: мультфильм, короткометражка, комедия, семейный
Год выпуска: 1999-2000
Продолжительность: 01:44:04 (4 серии по 00:26:01 минут)

Перевод: не требуется
Оригинальная аудиодорожка: русский
Cубтитры: нет

Режиссеры: Александр Макаров, Илья Максимов

Роли озвучивали:
Михаил Боярский, Вадим Гущин, Татьяна Михалевкина, Гелий Сысоев, Михаил Черняк, Юлия Бочанова, Эра Зиганшина, Анатолий Петров, Ян Цапник, Елена Шульман...

Описание:
Ураган переносит девочку Долли и щенка Тотошку из Канзаса в Волшебную страну, где жизнь не подчиняется обычным законам и возможны любые чудеса. Вместе с новыми друзьями: Соломенным Страшилой, Железным Дровосеком и Трусливым Львом — они направляются к Волшебнику Изумрудного Города, который может помочь ей вернуться домой. Волшебник соглашается исполнить по одному желанию каждого из друзей, но сначала они должны победить злую колдунью…





Исходник: DVD9 R5
Тип релиза: DVDRip-AVC
Контейнер: MKV

Видео: 696->760х570, (4:3), 25 fps, H264 ~ 1616 kbps avg, 0.163 bit/pixel
Аудио: 48 kHz, Dolby Digital AC3 5.1, 384 kbps

Раздача от:

01. Серебрянные туфельки (00:26:01)
02. Тайна великого волшебника (00:26:01)
03. Козни старой Момби (00:26:01)
04. Принцесса Озма (00:26:01)


Общее
Полное имя : Priklyucheniya.v.izumrudnom.gorode.1999.DVDRip-AVC_[New-team]_by_AVP_Studio.mkv
Формат : Matroska
Версия формата : Version 2
Размер файла : 373 Мбайт
Продолжительность : 26 м.
Общий поток : 2003 Кбит/сек
Дата кодирования : UTC 2014-09-16 16:45:48
Программа кодирования : mkvmerge v6.1.0 ('Old Devil') built on Mar 4 2013 09:10:42
Библиотека кодирования : libebml v1.3.0 + libmatroska v1.4.0

Видео
Идентификатор : 1
Формат : AVC
Формат/Информация : Advanced Video Codec
Профиль формата : High@L4.1
Параметр CABAC формата : Да
Параметр ReFrames формата : 8 кадров
Идентификатор кодека : V_MPEG4/ISO/AVC
Продолжительность : 26 м.
Битрейт : 1616 Кбит/сек
Ширина : 696 пикселей
Высота : 570 пикселей
Соотношение сторон : 4:3
Режим частоты кадров : Постоянный
Частота кадров : 25,000 кадров/сек
Цветовое пространство : YUV
Субдискретизация насыщенности : 4:2:0
Битовая глубина : 8 бит
Тип развёртки : Прогрессивная
Бит/(Пиксели*Кадры) : 0.163
Размер потока : 294 Мбайт (79%)
Библиотека кодирования : x264 core 138 r2356 a1d3d17
Настройки программы : cabac=1 / ref=8 / deblock=1:-2:-1 / analyse=0x3:0x113 / me=umh / subme=10 / psy=1 / psy_rd=1.00:0.05 / mixed_ref=1 / me_range=32 / chroma_me=1 / trellis=2 / 8x8dct=1 / cqm=0 / deadzone=21,11 / fast_pskip=0 / chroma_qp_offset=-3 / threads=6 / lookahead_threads=1 / sliced_threads=0 / nr=0 / decimate=0 / interlaced=0 / bluray_compat=0 / constrained_intra=0 / bframes=8 / b_pyramid=2 / b_adapt=2 / b_bias=0 / direct=3 / weightb=1 / open_gop=0 / weightp=2 / keyint=250 / keyint_min=25 / scenecut=40 / intra_refresh=0 / rc=2pass / mbtree=0 / bitrate=1616 / ratetol=1.0 / qcomp=0.60 / qpmin=0 / qpmax=69 / qpstep=4 / cplxblur=20.0 / qblur=0.5 / ip_ratio=1.40 / pb_ratio=1.30 / aq=1:1.00
Default : Да
Forced : Нет

Аудио
Идентификатор : 2
Формат : AC-3
Формат/Информация : Audio Coding 3
Расширение режима : CM (complete main)
Параметр Endianness формата : Big
Идентификатор кодека : A_AC3
Продолжительность : 26 м.
Вид битрейта : Постоянный
Битрейт : 384 Кбит/сек
Каналы : 6 каналов
Расположение каналов : Front: L C R, Side: L R, LFE
Частота : 48,0 КГц
Битовая глубина : 16 бит
Метод сжатия : С потерями
Размер потока : 71,5 Мбайт (19%)
Default : Да
Forced : Нет





   Похожие торренты   Торрент   Размер 
В этой теме нет новых непрочитанных сообщений. Приключения в изумрудном городе (1999-2000) DVDRip от New-Team

161 | 10

744.36 МБ

В этой теме нет новых непрочитанных сообщений. Приключения в изумрудном городе (1999-2000) DVDRip от New-Team

110 | 7

1.46 ГБ

В этой теме нет новых непрочитанных сообщений. Приключения в городе, которого нет (1974) DVDRip

13 | 3

1.36 ГБ

В этой теме нет новых непрочитанных сообщений. В городе все спокойно / La ville est tranquille (2000) DVDRip | A

2 | 0

1.46 ГБ

В этой теме нет новых непрочитанных сообщений. Фантоцци 2000 – Клонирование / Fantozzi 2000 – La clonazione (1999) DVDRip-AVC | P, A

10 | 0

3.78 ГБ

В этой теме нет новых непрочитанных сообщений. Фантоцци 2000. Клонирование / Fantozzi 2000 - la clonazione (1999) DVDRip

172 | 11

1.23 ГБ

В этой теме нет новых непрочитанных сообщений. Фантоцци 2000 - Клонирование / Fantozzi 2000 - la clonazione (1999) DVDRip

78 | 5

786.16 МБ




Вы не можете начинать темы
Вы не можете отвечать на сообщения
Вы не можете редактировать свои сообщения
Вы не можете удалять свои сообщения
Вы не можете добавлять вложения

Перейти:  
Для Мосгорсуда, Роскомнадзора и рекламодателей: mosgorsud-torrent[собачка]yandex.ru
 Вход
ppkBB3cker v.2 © 2008-2014 @ PPK
[ Time : 0.028s | 16 Queries | GZIP : Off ]

cron