img image001 image001 image001 image001 image001 image001 image001 image001 image001 image001 image001 image001 image001 image001 image001

Planets Sun Sun Sun
Статистика раздачи
Автор: Nickolas3434 | Размер: 4.33 ГБ | Добавлен: 17 сен 2014
Раздают: 351    Качают: 28
Скачать торрент
Скачать торрент
Описание торрента

СообщениеДобавлено: 17 сен 2014 

Яблочное зернышко: Проект Альфа / Appleseed Alpha



Страна: Япония, США
Жанр: фантастика, боевик, приключения
Год выпуска: 2014
Продолжительность: 01:33:15

Перевод: Профессиональный (многоголосый закадровый) Пифагор
Cубтитры: русские, английские
Оригинальная аудиодорожка: английский

Режиссер: Синдзи Арамаки / Shinji Aramaki
В ролях: Люси Кристиан, Дэвид Матранга, Элизабет Банч, Вендел Кэлверт, Адам Гиббс, Крис Хатчинсон, Брина Паленсиа, Josh Sheltz

Описание: На основе комиксов, от создателя Призрак в доспехах, молодой солдат Дюнан и киборг Бриарей, пережив третью мировую войну, путешествуют по апокалиптическому Нью-Йорку, в поисках легендарного города Олимпа, будущего оплота человечества.



Качество видео: BDRip 720p
Формат видео: MKV
Видео: x.264, 1280x720, 5618 kbps, 23.976 fps
Аудио 1: AC3, 48000 Hz, 384 kbps, 5.1 channels - MVO (Студия Пифагор)
Аудио 2: AC3, 48000 Hz, 640 kbps, 5.1 channels - ENG (Original)
Формат субтитров: softsub (SRT) - русские, английские
Format : Matroska
Format version : Version 4 / Version 2
File size : 4.33 GiB
Duration : 1h 33mn
Overall bit rate : 6 646 Kbps
Movie name : Яблочное зернышко: Проект Альфа / Appleseed Alpha (2014) BDRip 720p
Encoded date : UTC 2014-09-16 17:49:02
Writing application : mkvmerge v7.2.0 ('On Every Street') 32bit built on Sep 13 2014 15:42:11
Writing library : libebml v1.3.0 + libmatroska v1.4.1
Cover : Yes

Video
ID : 1
Format : AVC
Format/Info : Advanced Video Codec
Format profile : High@L4.1
Format settings, CABAC : Yes
Format settings, ReFrames : 8 frames
Codec ID : V_MPEG4/ISO/AVC
Duration : 1h 33mn
Bit rate : 5 618 Kbps
Width : 1 280 pixels
Height : 720 pixels
Display aspect ratio : 16:9
Frame rate mode : Constant
Frame rate : 23.976 fps
Color space : YUV
Chroma subsampling : 4:2:0
Bit depth : 8 bits
Scan type : Progressive
Bits/(Pixel*Frame) : 0.254
Stream size : 3.58 GiB (83%)
Writing library : x264 core 142 r2479 dd79a61
Encoding settings : cabac=1 / ref=8 / deblock=1:-3:-3 / analyse=0x3:0x133 / me=umh / subme=10 / psy=1 / psy_rd=1.00:0.15 / mixed_ref=1 / me_range=48 / chroma_me=1 / trellis=2 / 8x8dct=1 / cqm=0 / deadzone=21,11 / fast_pskip=0 / chroma_qp_offset=-3 / threads=6 / lookahead_threads=1 / sliced_threads=0 / nr=0 / decimate=1 / interlaced=0 / bluray_compat=0 / constrained_intra=0 / bframes=9 / b_pyramid=2 / b_adapt=2 / b_bias=0 / direct=3 / weightb=1 / open_gop=0 / weightp=2 / keyint=240 / keyint_min=23 / scenecut=40 / intra_refresh=0 / rc_lookahead=60 / rc=2pass / mbtree=0 / bitrate=5618 / ratetol=1.0 / qcomp=0.70 / qpmin=0 / qpmax=69 / qpstep=4 / cplxblur=20.0 / qblur=0.5 / vbv_maxrate=30000 / vbv_bufsize=40000 / nal_hrd=none / filler=0 / ip_ratio=1.20 / pb_ratio=1.30 / aq=1:0.90
Language : English
Default : Yes
Forced : No

Audio #1
ID : 2
Format : AC-3
Format/Info : Audio Coding 3
Mode extension : CM (complete main)
Format settings, Endianness : Big
Codec ID : A_AC3
Duration : 1h 33mn
Bit rate mode : Constant
Bit rate : 384 Kbps
Channel(s) : 6 channels
Channel positions : Front: L C R, Side: L R, LFE
Sampling rate : 48.0 KHz
Bit depth : 16 bits
Compression mode : Lossy
Stream size : 256 MiB (6%)
Title : MVO
Language : Russian
Default : Yes
Forced : No

Audio #2
ID : 3
Format : AC-3
Format/Info : Audio Coding 3
Mode extension : CM (complete main)
Format settings, Endianness : Big
Codec ID : A_AC3
Duration : 1h 33mn
Bit rate mode : Constant
Bit rate : 640 Kbps
Channel(s) : 6 channels
Channel positions : Front: L C R, Side: L R, LFE
Sampling rate : 48.0 KHz
Bit depth : 16 bits
Compression mode : Lossy
Stream size : 427 MiB (10%)
Title : Original
Language : English
Default : No
Forced : No

Text #1
ID : 4
Format : UTF-8
Codec ID : S_TEXT/UTF8
Codec ID/Info : UTF-8 Plain Text
Title : Full - JCWD
Language : Russian
Default : No
Forced : No

Text #2
ID : 5
Format : UTF-8
Codec ID : S_TEXT/UTF8
Codec ID/Info : UTF-8 Plain Text
Title : Full
Language : English
Default : No
Forced : No

Text #3
ID : 6
Format : UTF-8
Codec ID : S_TEXT/UTF8
Codec ID/Info : UTF-8 Plain Text
Title : SDH
Language : English
Default : No
Forced : No

Menu
00:00:00.000 : en:Chapter 1
00:05:09.684 : en:Chapter 2
00:09:07.713 : en:Chapter 3
00:14:45.885 : en:Chapter 4
00:19:39.178 : en:Chapter 5
00:29:15.587 : en:Chapter 6
00:33:53.823 : en:Chapter 7
00:38:17.253 : en:Chapter 8
00:44:42.763 : en:Chapter 9
00:51:23.997 : en:Chapter 10
00:56:57.997 : en:Chapter 11
01:02:53.352 : en:Chapter 12
01:08:48.415 : en:Chapter 13
01:13:17.434 : en:Chapter 14
01:19:02.863 : en:Chapter 15
01:24:49.209 : en:Chapter 16


Код:
x264 [info]: frame I:983   Avg QP:13.62  size:146750
x264 [info]: frame P:34838 Avg QP:14.81  size: 54864
x264 [info]: frame B:98339 Avg QP:17.39  size: 19059
x264 [info]: consecutive B-frames:  6.0%  5.8%  8.2% 23.8% 14.1% 23.0%  6.6%  8.9%  2.2%  1.3%







   Похожие торренты   Торрент   Размер 
В этой теме нет новых непрочитанных сообщений. Проект Альфа / Яблочное зёрнышко Альфа / Appleseed Alpha (2014) BDRip 720p | iTunes

1230 | 88

4.24 ГБ

В этой теме нет новых непрочитанных сообщений. Проект Альфа / Appleseed Alpha (2014) BDRip 720p | L1

543 | 22

4.11 ГБ

В этой теме нет новых непрочитанных сообщений. Проект Альфа (Яблочное зёрнышко Альфа) / Appleseed Alpha (2014) BDRip-AVC | iPad | P

110 | 7

2.06 ГБ

В этой теме нет новых непрочитанных сообщений. Проект Альфа (Яблочное зёрнышко Альфа) / OVA (Appleseed Alpha) (2014) BDRip 1080p от NNNB | iTunes

811 | 20

8.38 ГБ

В этой теме нет новых непрочитанных сообщений. Проект Альфа / Appleseed Alpha (2014) BDRip 720p от Leonardo and Scarabey | P

439 | 29

2.81 ГБ

В этой теме нет новых непрочитанных сообщений. Проект Альфа / Яблочное зёрнышко Альфа / Appleseed Alpha (2014) HDRip | iTunes

2033 | 52

1.37 ГБ

В этой теме нет новых непрочитанных сообщений. Проект Альфа / Appleseed Alpha (2014) BDRip 1080p | L1

532 | 30

8.26 ГБ




Вы не можете начинать темы
Вы не можете отвечать на сообщения
Вы не можете редактировать свои сообщения
Вы не можете удалять свои сообщения
Вы не можете добавлять вложения

Перейти:  
Для Мосгорсуда, Роскомнадзора и рекламодателей: mosgorsud-torrent[собачка]yandex.ru
 Вход
ppkBB3cker v.2 © 2008-2014 @ PPK
[ Time : 0.035s | 15 Queries | GZIP : Off ]

Торрент трекер RUTOR.IN, Не можете зайти на rutor.org? Какой новый адрес рутор? Какое зеркало рутор? Не работает rutor.org и зеркала? Тогда наш торрент специально для вас. Rutor.in неофициальное зеркало rutor. В случае если у Вас заблокирован rutor или вдруг Вы не можете на него зайти, то Вы без труда сможете скачать бесплатно и без рекламы последние новинки кино, игр, сериалов и прочего у нас, на Rutor.in. Не нужно использовать прокси, чтобы зайти на рутор, достаточно воспользоваться нашим ресурсом. Все новые фильмы, игры, сериалы, книги и музыка за 2013 и 2014 годы через торрент бесплатно. Скачивайте фильмы в хорошем качестве, игры для пк, xbox, playstation без регистрации. У нас вы найдете новые Зарубежные сериалы и Русские сериалы 2013, 2014, 2015 годов. Оставайтесь с нами, качайте любимые фильмы, игры, сериалы, книги и музыку.
cron