img image001 image001 image001 image001 image001 image001 image001 image001 image001 image001 image001 image001 image001 image001 image001

Planets Sun Sun Sun
Статистика раздачи
Автор: Nickolas3434 | Размер: 7.76 ГБ | Добавлен: 21 сен 2014
Раздают: 119    Качают: 19
Скачать торрент
Скачать торрент
Описание торрента

СообщениеДобавлено: 21 сен 2014 


#77
Информация о фильме
    Русское название: Ан19972014
    Жанр: Мюзикл, драма, приключения
    Режиссер: Дон Блат, Гари Голдман
    Выпущено: США
    Продолжительность: 01:34:10
    Перевод: Дублированный, Профессиональный (Многоголосый, закадровый), Авторский (Гаврилов, Живов, Антонов)
    Роли озвучивали: Мег Райан, Джон Кьюсак, Келси Грэммер, Кристофер Ллойд, Хэнк Азария, Бернадетт Питерс, Кирстен Данст, Анджела Лэнсбери, Рик Джонс, Андреа Мартин


Сюжет фильма
    Мультфильм рассказывает историю о пропавшей русской царевне Анастасии и ее удивительных приключениях. Когда тень надвигающихся перемен нависает над Россией, маленькая Анастасия вынуждена прятаться, чтобы спасти свою жизнь.
    Спустя годы она встречает красивого молодого Дмитрия. Вместе они отправляются в Париж, чтобы найти законное наследство Анастасии. Но на их пути становится злой колдун Распутин и его помощник Барток — злобный летучий мышонок.


Файл
    Качество: BDRip 1080p (исходник Blu-ray Disc)
    Видео: 1920x810, 9170 Кбит/сек, 23,976 кадр/сек, AVC, x264, High@L4.1, 2.40:1, 0.246 Бит/[Пиксели*Кадры]
    Аудио 1: AC-3, 448 Кбит/сек, 6 канала(ов), 48,0 КГц - Дублированный / Русский
    Аудио 2: AC-3, 448 Кбит/сек, 6 канала(ов), 48,0 КГц - Многоголосый закадровый, Карусель / Русский
    Аудио 3: AC-3, 192 Кбит/сек, 2 канала(ов), 48,0 КГц - Многоголосый закадровый, Лазер-Видео / Русский
    Аудио 4: AC-3, 448 Кбит/сек, 6 канала(ов), 48,0 КГц - Одноголосый закадровый, Живов / Русский
    Аудио 5: AC-3, 448 Кбит/сек, 6 канала(ов), 48,0 КГц - Одноголосый закадровый, Гаврилов / Русский
    Аудио 6: AC-3, 192 Кбит/сек, 2 канала(ов), 48,0 КГц - Одноголосый закадровый, Антонов / Русский
    Аудио 7: AC-3, 448 Кбит/сек, 6 канала(ов), 48,0 КГц - Оригинал / Английский
    Субтитры: Русские | Полные, Английские | Полные
    Форсированные субтитры: Нет
    Чаптеры (Главы): Есть



Автор Рипа: Сообщество:



Format : Matroska
Format version : Version 2
File size : 7.76 GiB
Duration : 1h 34mn
Overall bit rate : 11.8 Mbps
Movie name : Анастасия.(1997).BDRip.1080p.[envy]
Encoded date : UTC 2014-09-20 07:51:55
Writing application : mkvmerge v5.8.0 ('No Sleep / Pillow') built on Sep 2 2012 15:37:04
Writing library : libebml v1.2.3 + libmatroska v1.3.0

Video
ID : 1
Format : AVC
Format/Info : Advanced Video Codec
Format profile : High@L4.1
Format settings, CABAC : Yes
Format settings, ReFrames : 5 frames
Codec ID : V_MPEG4/ISO/AVC
Duration : 1h 34mn
Bit rate : 9 170 Kbps
Width : 1 920 pixels
Height : 810 pixels
Display aspect ratio : 2.40:1
Frame rate mode : Constant
Frame rate : 23.976 fps
Color space : YUV
Chroma subsampling : 4:2:0
Bit depth : 8 bits
Scan type : Progressive
Bits/(Pixel*Frame) : 0.246
Stream size : 5.88 GiB (76%)
Title : Анастасия.(1997).BDRip.1080p.[envy]
Writing library : x264 core 142 r2479 dd79a61
Encoding settings : cabac=1 / ref=5 / deblock=1:0:0 / analyse=0x3:0x113 / me=umh / subme=11 / psy=1 / psy_rd=1.00:0.00 / mixed_ref=1 / me_range=32 / chroma_me=1 / trellis=2 / 8x8dct=1 / cqm=0 / deadzone=21,11 / fast_pskip=0 / chroma_qp_offset=-2 / threads=12 / lookahead_threads=2 / sliced_threads=0 / nr=0 / decimate=1 / interlaced=0 / bluray_compat=0 / constrained_intra=0 / bframes=7 / b_pyramid=2 / b_adapt=2 / b_bias=0 / direct=3 / weightb=1 / open_gop=0 / weightp=2 / keyint=240 / keyint_min=23 / scenecut=40 / intra_refresh=0 / rc=2pass / mbtree=0 / bitrate=9170 / ratetol=2.0 / qcomp=0.60 / qpmin=0 / qpmax=69 / qpstep=4 / cplxblur=20.0 / qblur=0.5 / ip_ratio=1.40 / pb_ratio=1.30 / aq=2:1.00
Language : English
Default : Yes
Forced : No

Audio #1
ID : 2
Format : AC-3
Format/Info : Audio Coding 3
Mode extension : CM (complete main)
Format settings, Endianness : Big
Codec ID : A_AC3
Duration : 1h 34mn
Bit rate mode : Constant
Bit rate : 448 Kbps
Channel(s) : 6 channels
Channel positions : Front: L C R, Side: L R, LFE
Sampling rate : 48.0 KHz
Bit depth : 16 bits
Compression mode : Lossy
Stream size : 302 MiB (4%)
Title : Dub
Language : Russian
Default : Yes
Forced : No

Audio #2
ID : 3
Format : AC-3
Format/Info : Audio Coding 3
Mode extension : CM (complete main)
Format settings, Endianness : Big
Codec ID : A_AC3
Duration : 1h 34mn
Bit rate mode : Constant
Bit rate : 448 Kbps
Channel(s) : 6 channels
Channel positions : Front: L C R, Side: L R, LFE
Sampling rate : 48.0 KHz
Bit depth : 16 bits
Compression mode : Lossy
Stream size : 302 MiB (4%)
Title : MVO Karusel
Language : Russian
Default : No
Forced : No

Audio #3
ID : 4
Format : AC-3
Format/Info : Audio Coding 3
Mode extension : CM (complete main)
Format settings, Endianness : Big
Codec ID : A_AC3
Duration : 1h 34mn
Bit rate mode : Constant
Bit rate : 192 Kbps
Channel(s) : 2 channels
Channel positions : Front: L R
Sampling rate : 48.0 KHz
Bit depth : 16 bits
Compression mode : Lossy
Stream size : 129 MiB (2%)
Title : MVO Lazer Video
Language : Russian
Default : No
Forced : No

Audio #4
ID : 5
Format : AC-3
Format/Info : Audio Coding 3
Mode extension : CM (complete main)
Format settings, Endianness : Big
Codec ID : A_AC3
Duration : 1h 34mn
Bit rate mode : Constant
Bit rate : 448 Kbps
Channel(s) : 6 channels
Channel positions : Front: L C R, Side: L R, LFE
Sampling rate : 48.0 KHz
Bit depth : 16 bits
Compression mode : Lossy
Stream size : 302 MiB (4%)
Title : Zhivov
Language : Russian
Default : No
Forced : No

Audio #5
ID : 6
Format : AC-3
Format/Info : Audio Coding 3
Mode extension : CM (complete main)
Format settings, Endianness : Big
Codec ID : A_AC3
Duration : 1h 34mn
Bit rate mode : Constant
Bit rate : 448 Kbps
Channel(s) : 6 channels
Channel positions : Front: L C R, Side: L R, LFE
Sampling rate : 48.0 KHz
Bit depth : 16 bits
Compression mode : Lossy
Stream size : 302 MiB (4%)
Title : Gavrilov
Language : Russian
Default : No
Forced : No

Audio #6
ID : 7
Format : AC-3
Format/Info : Audio Coding 3
Mode extension : CM (complete main)
Format settings, Endianness : Big
Codec ID : A_AC3
Duration : 1h 34mn
Bit rate mode : Constant
Bit rate : 192 Kbps
Channel(s) : 2 channels
Channel positions : Front: L R
Sampling rate : 48.0 KHz
Bit depth : 16 bits
Compression mode : Lossy
Stream size : 129 MiB (2%)
Title : Antonov
Language : Russian
Default : No
Forced : No

Audio #7
ID : 8
Format : AC-3
Format/Info : Audio Coding 3
Mode extension : CM (complete main)
Format settings, Endianness : Big
Codec ID : A_AC3
Duration : 1h 34mn
Bit rate mode : Constant
Bit rate : 448 Kbps
Channel(s) : 6 channels
Channel positions : Front: L C R, Side: L R, LFE
Sampling rate : 48.0 KHz
Bit depth : 16 bits
Compression mode : Lossy
Stream size : 302 MiB (4%)
Title : Eng
Language : English
Default : No
Forced : No

Text #1
ID : 9
Format : UTF-8
Codec ID : S_TEXT/UTF8
Codec ID/Info : UTF-8 Plain Text
Title : full
Language : Russian
Default : No
Forced : No

Text #2
ID : 10
Format : UTF-8
Codec ID : S_TEXT/UTF8
Codec ID/Info : UTF-8 Plain Text
Title : full
Language : English
Default : No
Forced : No

Menu
00:00:00.000 : :Chapter 01
00:06:45.654 : :Chapter 02
00:10:46.395 : :Chapter 03
00:17:14.242 : :Chapter 04
00:24:16.996 : :Chapter 05
00:30:25.699 : :Chapter 06
00:37:40.632 : :Chapter 07
00:41:09.550 : :Chapter 08
00:47:28.971 : :Chapter 09
00:53:21.364 : :Chapter 10
00:59:19.139 : :Chapter 11
01:04:51.429 : :Chapter 12
01:09:10.897 : :Chapter 13
01:16:19.867 : :Chapter 14
01:23:04.854 : :Chapter 15
01:28:57.957 : :Chapter 16



#77



   Похожие торренты   Торрент   Размер 
В этой теме нет новых непрочитанных сообщений. Анастасия / Anastasia (1997) BDRip 1080p

22 | 6

8.83 ГБ

В этой теме нет новых непрочитанных сообщений. Анастасия / Anastasia (1997) BDRip 1080p

66 | 10

4.37 ГБ

В этой теме нет новых непрочитанных сообщений. Анастасия / Anastasia (1997) BDRip-AVC от NovaLan

17 | 7

2.09 ГБ

В этой теме нет новых непрочитанных сообщений. Анастасия / Anastasia (1997) BDRip-AVC | iPad

129 | 6

1.52 ГБ

В этой теме нет новых непрочитанных сообщений. Анастасия / Anastasia (1997) BDRip 720p | D, P2

33 | 6

5.28 ГБ

В этой теме нет новых непрочитанных сообщений. Анастасия / Anastasia (1997) BDRip 720p

11 | 5

7.02 ГБ

В этой теме нет новых непрочитанных сообщений. Анастасия / Anastasia (1997) BDRip от HQCLUB

1233 | 38

1.45 ГБ




Вы не можете начинать темы
Вы не можете отвечать на сообщения
Вы не можете редактировать свои сообщения
Вы не можете удалять свои сообщения
Вы не можете добавлять вложения

Перейти:  
Для Мосгорсуда, Роскомнадзора и рекламодателей: mosgorsud-torrent[собачка]yandex.ru
 Вход
ppkBB3cker v.2 © 2008-2014 @ PPK
[ Time : 0.847s | 15 Queries | GZIP : Off ]

Торрент трекер RUTOR.IN, Не можете зайти на rutor.org? Какой новый адрес рутор? Какое зеркало рутор? Не работает rutor.org и зеркала? Тогда наш торрент специально для вас. Rutor.in неофициальное зеркало rutor. В случае если у Вас заблокирован rutor или вдруг Вы не можете на него зайти, то Вы без труда сможете скачать бесплатно и без рекламы последние новинки кино, игр, сериалов и прочего у нас, на Rutor.in. Не нужно использовать прокси, чтобы зайти на рутор, достаточно воспользоваться нашим ресурсом. Все новые фильмы, игры, сериалы, книги и музыка за 2013 и 2014 годы через торрент бесплатно. Скачивайте фильмы в хорошем качестве, игры для пк, xbox, playstation без регистрации. У нас вы найдете новые Зарубежные сериалы и Русские сериалы 2013, 2014, 2015 годов. Оставайтесь с нами, качайте любимые фильмы, игры, сериалы, книги и музыку.