img image001 image001 image001 image001 image001 image001 image001 image001 image001 image001 image001 image001 image001 image001 image001

Planets Sun Sun Sun
Статистика раздачи
Автор: Nickolas3434 | Размер: 8.46 ГБ | Добавлен: 25 сен 2014
Раздают: 29    Качают: 18
Скачать торрент
Скачать торрент
Описание торрента

СообщениеДобавлено: 25 сен 2014 


Страна: США / Darby Pop Productions, Digitalscape Co. Ltd., Hasbro Studios, K/O Paper Products, Polygon Pictures
Год выпуска: 2010-2011

Жанр: мультфильм, фантастика, боевик, приключения
Продолжительность: ~ 00:21:16 / серия

Перевод: Профессиональный (полное дублирование)
Субтитры: нет
Оригинальная аудиодорожка: английский


Режиссер: Дэвид Хартман / David Hartman, Шонт Нигогосян / Shaunt Nigoghossian, Винтон Хёк / Vinton Heuck...


Озвучивали: Питер Каллен, Сумали Монтано, Джеффри Комбс, Фрэнк Уэлкер, Кевин Майкл Ричардсон, Таня Гунади, Джошуа Китон, Стивен Блум, Энди Пессоа, Эрни Хадсон...

Дублировали: Наталья Грачева, Даниил Эльдаров, Александр Коврижных, Диомид Виноградов, Дмитрий Курта

Описание: Уверенные, что опасность миновала, автоботы, тем не менее, оставляют на Земле небольшую группу защитников под руководством Оптимуса Прайма. Предосторожность оказывается не напрасной — три года спустя Мегатрон объявляется снова и приносит с собой Тёмный Энергон, с помощью которого рассчитывает отомстить за прошлое поражение. Автоботы опять вынуждены взяться за оружие. Они подружились с несколькими земными подростками, и теперь команда роботов и людей сражается, чтобы защитить Землю от десептиконов.




Качество: DVDRip-AVC / 5 x DVD9 R5 лицензионные диски от «Двадцатый Век Фокс СНГ»
Формат: MKV

Видео: 720x572@1024x572 (16:9), 25.000 fps, MPEG-4 AVC ~ 1809 kbps avg, 0.176 bit/pixel
Аудио 1: 48 kHz, Dolby AC3 2.0 192 kbps, русский
Аудио 2: 48 kHz, Dolby AC3 2.0 192 kbps, английский

Релиз от:

01. Тьма сгущается: Часть 1 / Darkness Rising: Part 1, 26 ноября 2010
02. Тьма сгущается: Часть 2 / Darkness Rising: Part 2, 26 ноября 2010
03. Тьма сгущается: Часть 3 / Darkness Rising: Part 3, 1 декабря 2010
04. Тьма сгущается: Часть 4 / Darkness Rising: Part 4, 2 декабря 2010
05. Тьма сгущается: Часть 5 / Darkness Rising: Part 5, 3 декабря 2010
06. Наставники и ученики / Masters & Students, 11 февраля 2011
07. Свалка / Scrapheap, 18 февраля 2011
08. Дело десептиконов / Con Job, 25 февраля 2011
09. Конвой / Convoy, 4 марта 2011
10. Бог из машины / Deus Ex Machina, 11 марта 2011
11. Скоростной металл / Speed Metal, 9 апреля 2011
12. Хищник / Predatory, 16 апреля 2011
13. Игры разума / Sick Mind, 30 апреля 2011
14. В чужом теле / Out of His Head, 7 мая 2011
15. Зона тени / Shadowzone, 14 мая 2011
16. Операция: Брейкдаун / Operation: Breakdown, 18 июня 2011
17. Крест-накрест / Crisscross, 25 июня 2011
18. Магнетизм / Metal Attraction, 9 июля 2011
19. Нижний предел / Rock Bottom, 16 июля 2011
20. Партнёры / Partners, 23 июля 2011
21. Перезагрузка / T.M.I., 7 августа 2011
22. Быстрее, сильнее / Stronger, Faster, 14 августа 2011
23. Один должен пасть / One Shall Fall, 21 августа 2011
24. Тот, кто возвысится: Часть 1 / One Shall Rise: Part 1, 29 сентября 2011
25. Тот, кто возвысится: Часть 2 / One Shall Rise: Part 2, 3 октября 2011
26. Тот, кто возвысится: Часть 3 / One Shall Rise: Part 3, 4 октября 2011

Общее
Полное имя : Transformery.Praym.2010.S1.D.DVDRip-AVC_[New-Team]_by_avproh\01.Tma.sgushaetsya.ch1.mkv
Формат : Matroska
Версия формата : Version 4 / Version 2
Размер файла : 334 Мбайт
Продолжительность : 21 м.
Общий поток : 2196 Кбит/сек
Дата кодирования : UTC 2014-09-24 09:44:01
Программа кодирования : mkvmerge v7.2.0 ('On Every Street') 64bit built on Sep 13 2014 15:52:10
Библиотека кодирования : libebml v1.3.0 + libmatroska v1.4.1
DURATION : 00:21:16.192000000
NUMBER_OF_FRAMES : 39881
NUMBER_OF_BYTES : 30628608
_STATISTICS_WRITING_APP : mkvmerge v7.2.0 ('On Every Street') 64bit built on Sep 13 2014 15:52:10
_STATISTICS_WRITING_DATE_UTC : 2014-09-24 09:44:01
_STATISTICS_TAGS : BPS DURATION NUMBER_OF_FRAMES NUMBER_OF_BYTES

Видео
Идентификатор : 1
Формат : AVC
Формат/Информация : Advanced Video Codec
Профиль формата : High@L4.1
Параметр CABAC формата : Да
Параметр ReFrames формата : 8 кадров
Идентификатор кодека : V_MPEG4/ISO/AVC
Продолжительность : 21 м.
Битрейт : 1809 Кбит/сек
Ширина : 720 пикселей
Высота : 572 пикселя
Соотношение сторон : 16:9
Режим частоты кадров : Постоянный
Частота кадров : 25,000 кадров/сек
Цветовое пространство : YUV
Субдискретизация насыщенности : 4:2:0
Битовая глубина : 8 бит
Тип развёртки : Прогрессивная
Бит/(Пиксели*Кадры) : 0.176
Размер потока : 269 Мбайт (81%)
Библиотека кодирования : x264 core 130 r2273 b3065e6
Настройки программы : cabac=1 / ref=8 / deblock=1:-3:-2 / analyse=0x3:0x113 / me=umh / subme=10 / psy=1 / psy_rd=1.00:0.05 / mixed_ref=1 / me_range=32 / chroma_me=1 / trellis=2 / 8x8dct=1 / cqm=0 / deadzone=21,11 / fast_pskip=0 / chroma_qp_offset=-3 / threads=9 / lookahead_threads=1 / sliced_threads=0 / nr=0 / decimate=0 / interlaced=0 / bluray_compat=0 / constrained_intra=0 / bframes=8 / b_pyramid=2 / b_adapt=2 / b_bias=0 / direct=3 / weightb=1 / open_gop=0 / weightp=2 / keyint=240 / keyint_min=24 / scenecut=40 / intra_refresh=0 / rc_lookahead=40 / rc=2pass / mbtree=1 / bitrate=1809 / ratetol=1.0 / qcomp=0.60 / qpmin=0 / qpmax=69 / qpstep=4 / cplxblur=20.0 / qblur=0.5 / ip_ratio=1.40 / aq=1:1.00
Язык : English
Default : Да
Forced : Нет
DURATION : 00:21:16.200000000
NUMBER_OF_FRAMES : 31905
NUMBER_OF_BYTES : 288688721
_STATISTICS_WRITING_APP : mkvmerge v7.2.0 ('On Every Street') 64bit built on Sep 13 2014 15:52:10
_STATISTICS_WRITING_DATE_UTC : 2014-09-24 09:44:01
_STATISTICS_TAGS : BPS DURATION NUMBER_OF_FRAMES NUMBER_OF_BYTES

Аудио #1
Идентификатор : 2
Формат : AC-3
Формат/Информация : Audio Coding 3
Расширение режима : CM (complete main)
Параметр Endianness формата : Big
Идентификатор кодека : A_AC3
Продолжительность : 21 м.
Вид битрейта : Постоянный
Битрейт : 192 Кбит/сек
Каналы : 2 канала
Расположение каналов : Front: L R
Частота : 48,0 КГц
Битовая глубина : 16 бит
Метод сжатия : С потерями
Размер потока : 29,2 Мбайт (9%)
Язык : Russian
Default : Да
Forced : Нет

Аудио #2
Идентификатор : 3
Формат : AC-3
Формат/Информация : Audio Coding 3
Расширение режима : CM (complete main)
Параметр Endianness формата : Big
Идентификатор кодека : A_AC3
Продолжительность : 21 м.
Вид битрейта : Постоянный
Битрейт : 192 Кбит/сек
Каналы : 2 канала
Расположение каналов : Front: L R
Частота : 48,0 КГц
Битовая глубина : 16 бит
Метод сжатия : С потерями
Размер потока : 29,2 Мбайт (9%)
Язык : English
Default : Нет
Forced : Нет





   Похожие торренты   Торрент   Размер 
В этой теме нет новых непрочитанных сообщений. Трансформеры: Прайм / Transformers Prime [01*1-26 из 26] (2010-2011) DVDRip от New-Team | D | лицензия

132 | 27

8.47 ГБ

В этой теме нет новых непрочитанных сообщений. Трансформеры: Прайм / Transformers Prime [01x01-26 из 26] (2010-2011) 5xDVD9 от New-Team | D | Лицензия

17 | 22

31.41 ГБ

В этой теме нет новых непрочитанных сообщений. Трансформеры: Прайм / Transformers Prime [S01-S03] + Трансформеры: Прайм – Звериные Охотники: Восстание Предаконов (2010 - 2013) WEB-DLRip, HDRip от R.G.RealMT | L, D

230 | 83

27.96 ГБ

В этой теме нет новых непрочитанных сообщений. Трансформеры: Прайм / Transformers Prime [S01-S03] + Трансформеры: Прайм – Звериные Охотники: Восстание Предаконов (2010 - 2013) WEB-DLRip, HDRip от R.G.RealMT | КПК | L, D

226 | 26

5.51 ГБ

В этой теме нет новых непрочитанных сообщений. Трансформеры: Прайм / Transformers Prime [01x01-10 из 26] (2010) 2xDVD9 от Youtracker | D | Лицензия

0 | 13

12.09 ГБ

В этой теме нет новых непрочитанных сообщений. Трансформеры: Прайм / Transformers Prime Darkness Rising (2011) DVDRip

149 | 6

1.37 ГБ

В этой теме нет новых непрочитанных сообщений. Трансформеры: Прайм / Transformers Prime Darkness Rising (2011) DVDRip

5 | 2

700.01 МБ




Вы не можете начинать темы
Вы не можете отвечать на сообщения
Вы не можете редактировать свои сообщения
Вы не можете удалять свои сообщения
Вы не можете добавлять вложения

Перейти:  
Для Мосгорсуда, Роскомнадзора и рекламодателей: mosgorsud-torrent[собачка]yandex.ru
 Вход
ppkBB3cker v.2 © 2008-2014 @ PPK
[ Time : 0.628s | 15 Queries | GZIP : Off ]

Торрент трекер RUTOR.IN, Не можете зайти на rutor.org? Какой новый адрес рутор? Какое зеркало рутор? Не работает rutor.org и зеркала? Тогда наш торрент специально для вас. Rutor.in неофициальное зеркало rutor. В случае если у Вас заблокирован rutor или вдруг Вы не можете на него зайти, то Вы без труда сможете скачать бесплатно и без рекламы последние новинки кино, игр, сериалов и прочего у нас, на Rutor.in. Не нужно использовать прокси, чтобы зайти на рутор, достаточно воспользоваться нашим ресурсом. Все новые фильмы, игры, сериалы, книги и музыка за 2013 и 2014 годы через торрент бесплатно. Скачивайте фильмы в хорошем качестве, игры для пк, xbox, playstation без регистрации. У нас вы найдете новые Зарубежные сериалы и Русские сериалы 2013, 2014, 2015 годов. Оставайтесь с нами, качайте любимые фильмы, игры, сериалы, книги и музыку.