img image001 image001 image001 image001 image001 image001 image001 image001 image001 image001 image001 image001 image001 image001 image001

Planets Sun Sun Sun
Статистика раздачи
Автор: Nickolas3434 | Размер: 8.47 ГБ | Добавлен: 25 сен 2014
Раздают: 141    Качают: 23
Скачать торрент
Скачать торрент
Описание торрента

СообщениеДобавлено: 25 сен 2014 


Страна: США / Darby Pop Productions, Digitalscape Co. Ltd., Hasbro Studios, K/O Paper Products, Polygon Pictures
Год выпуска: 2010-2011

Жанр: мультфильм, фантастика, боевик, приключения
Продолжительность: ~ 00:21:16 / серия

Перевод: Профессиональный (полное дублирование)
Субтитры: нет
Оригинальная аудиодорожка: английский


Режиссер: Дэвид Хартман / David Hartman, Шонт Нигогосян / Shaunt Nigoghossian, Винтон Хёк / Vinton Heuck...


Озвучивали: Питер Каллен, Сумали Монтано, Джеффри Комбс, Фрэнк Уэлкер, Кевин Майкл Ричардсон, Таня Гунади, Джошуа Китон, Стивен Блум, Энди Пессоа, Эрни Хадсон...

Дублировали: Наталья Грачева, Даниил Эльдаров, Александр Коврижных, Диомид Виноградов, Дмитрий Курта

Описание: Уверенные, что опасность миновала, автоботы, тем не менее, оставляют на Земле небольшую группу защитников под руководством Оптимуса Прайма. Предосторожность оказывается не напрасной — три года спустя Мегатрон объявляется снова и приносит с собой Тёмный Энергон, с помощью которого рассчитывает отомстить за прошлое поражение. Автоботы опять вынуждены взяться за оружие. Они подружились с несколькими земными подростками, и теперь команда роботов и людей сражается, чтобы защитить Землю от десептиконов.





Качество: DVDRip / 5 x DVD9 R5 лицензионные диски от «Двадцатый Век Фокс СНГ»
Формат: AVI

Видео: 720x400 (16:9), 25.000 fps, XviD ~ 1800 kbps avg, 0.250 bit/pixel
Аудио 1: 48 kHz, Dolby AC3 2.0 192 kbps, русский
Аудио 2: 48 kHz, Dolby AC3 2.0 192 kbps, английский

Релиз от:

01. Тьма сгущается: Часть 1 / Darkness Rising: Part 1, 26 ноября 2010
02. Тьма сгущается: Часть 2 / Darkness Rising: Part 2, 26 ноября 2010
03. Тьма сгущается: Часть 3 / Darkness Rising: Part 3, 1 декабря 2010
04. Тьма сгущается: Часть 4 / Darkness Rising: Part 4, 2 декабря 2010
05. Тьма сгущается: Часть 5 / Darkness Rising: Part 5, 3 декабря 2010
06. Наставники и ученики / Masters & Students, 11 февраля 2011
07. Свалка / Scrapheap, 18 февраля 2011
08. Дело десептиконов / Con Job, 25 февраля 2011
09. Конвой / Convoy, 4 марта 2011
10. Бог из машины / Deus Ex Machina, 11 марта 2011
11. Скоростной металл / Speed Metal, 9 апреля 2011
12. Хищник / Predatory, 16 апреля 2011
13. Игры разума / Sick Mind, 30 апреля 2011
14. В чужом теле / Out of His Head, 7 мая 2011
15. Зона тени / Shadowzone, 14 мая 2011
16. Операция: Брейкдаун / Operation: Breakdown, 18 июня 2011
17. Крест-накрест / Crisscross, 25 июня 2011
18. Магнетизм / Metal Attraction, 9 июля 2011
19. Нижний предел / Rock Bottom, 16 июля 2011
20. Партнёры / Partners, 23 июля 2011
21. Перезагрузка / T.M.I., 7 августа 2011
22. Быстрее, сильнее / Stronger, Faster, 14 августа 2011
23. Один должен пасть / One Shall Fall, 21 августа 2011
24. Тот, кто возвысится: Часть 1 / One Shall Rise: Part 1, 29 сентября 2011
25. Тот, кто возвысится: Часть 2 / One Shall Rise: Part 2, 3 октября 2011
26. Тот, кто возвысится: Часть 3 / One Shall Rise: Part 3, 4 октября 2011

Общее
Полное имя : Transformery.Praym.2010.S1.D.DVDRip_[New-Team]_by_avproh1.Tma.sgushaetsya.ch1.avi
Формат : AVI
Формат/Информация : Audio Video Interleave
Размер файла : 334 Мбайт
Продолжительность : 21 м.
Общий поток : 2198 Кбит/сек
Программа кодирования : VirtualDubModRus 1.5.10.2 (build 2542/release)
Библиотека кодирования : VirtualDubMod build 2542/release

Видео
Идентификатор : 0
Формат : MPEG-4 Visual
Профиль формата : Advanced Simple@L5
Параметр BVOP формата : 1
Параметр QPel формата : Нет
Параметр GMC формата : Без точки перехода
Параметр матрицы формата : Выборочная
Идентификатор кодека : XVID
Идентификатор кодека/Подсказка : XviD
Продолжительность : 21 м.
Битрейт : 1800 Кбит/сек
Ширина : 720 пикселей
Высота : 400 пикселей
Соотношение сторон : 16:9
Частота кадров : 25,000 кадров/сек
Цветовое пространство : YUV
Субдискретизация насыщенности : 4:2:0
Битовая глубина : 8 бит
Тип развёртки : Прогрессивная
Метод сжатия : С потерями
Бит/(Пиксели*Кадры) : 0.250
Размер потока : 274 Мбайт (82%)
Библиотека кодирования : XviD 1.2.1 (UTC 2008-12-04)

Аудио #1
Идентификатор : 1
Формат : AC-3
Формат/Информация : Audio Coding 3
Расширение режима : CM (complete main)
Параметр Endianness формата : Big
Идентификатор кодека : 2000
Продолжительность : 21 м.
Вид битрейта : Постоянный
Битрейт : 192 Кбит/сек
Каналы : 2 канала
Расположение каналов : Front: L R
Частота : 48,0 КГц
Битовая глубина : 16 бит
Метод сжатия : С потерями
Размер потока : 29,2 Мбайт (9%)
Выравнивание : Разделение по промежуткам
Продолжительность промежутка : 40 мс. (1,00 видеокадр)
Время предзагрузки промежутка : 500 мс.

Аудио #2
Идентификатор : 2
Формат : AC-3
Формат/Информация : Audio Coding 3
Расширение режима : CM (complete main)
Параметр Endianness формата : Big
Идентификатор кодека : 2000
Продолжительность : 21 м.
Вид битрейта : Постоянный
Битрейт : 192 Кбит/сек
Каналы : 2 канала
Расположение каналов : Front: L R
Частота : 48,0 КГц
Битовая глубина : 16 бит
Метод сжатия : С потерями
Размер потока : 29,2 Мбайт (9%)
Выравнивание : Разделение по промежуткам
Продолжительность промежутка : 40 мс. (1,00 видеокадр)
Время предзагрузки промежутка : 500 мс.





   Похожие торренты   Торрент   Размер 
В этой теме нет новых непрочитанных сообщений. Трансформеры: Прайм / Transformers Prime [01*1-26 из 26] (2010-2011) DVDRip-AVC от New-Team | D | лицензия

29 | 18

8.46 ГБ

В этой теме нет новых непрочитанных сообщений. Трансформеры: Прайм / Transformers Prime [01x01-26 из 26] (2010-2011) 5xDVD9 от New-Team | D | Лицензия

16 | 20

31.41 ГБ

В этой теме нет новых непрочитанных сообщений. Трансформеры: Прайм / Transformers Prime [S01-S03] + Трансформеры: Прайм – Звериные Охотники: Восстание Предаконов (2010 - 2013) WEB-DLRip, HDRip от R.G.RealMT | L, D

230 | 83

27.96 ГБ

В этой теме нет новых непрочитанных сообщений. Трансформеры: Прайм / Transformers Prime [S01-S03] + Трансформеры: Прайм – Звериные Охотники: Восстание Предаконов (2010 - 2013) WEB-DLRip, HDRip от R.G.RealMT | КПК | L, D

226 | 26

5.51 ГБ

В этой теме нет новых непрочитанных сообщений. Трансформеры: Прайм / Transformers Prime [01x01-10 из 26] (2010) 2xDVD9 от Youtracker | D | Лицензия

0 | 13

12.09 ГБ

В этой теме нет новых непрочитанных сообщений. Трансформеры: Прайм / Transformers Prime Darkness Rising (2011) DVDRip

149 | 6

1.37 ГБ

В этой теме нет новых непрочитанных сообщений. Трансформеры: Прайм / Transformers Prime Darkness Rising (2011) DVDRip

5 | 2

700.01 МБ




Вы не можете начинать темы
Вы не можете отвечать на сообщения
Вы не можете редактировать свои сообщения
Вы не можете удалять свои сообщения
Вы не можете добавлять вложения

Перейти:  
Для Мосгорсуда, Роскомнадзора и рекламодателей: mosgorsud-torrent[собачка]yandex.ru
 Вход
ppkBB3cker v.2 © 2008-2014 @ PPK
[ Time : 0.071s | 16 Queries | GZIP : Off ]

Торрент трекер RUTOR.IN, Не можете зайти на rutor.org? Какой новый адрес рутор? Какое зеркало рутор? Не работает rutor.org и зеркала? Тогда наш торрент специально для вас. Rutor.in неофициальное зеркало rutor. В случае если у Вас заблокирован rutor или вдруг Вы не можете на него зайти, то Вы без труда сможете скачать бесплатно и без рекламы последние новинки кино, игр, сериалов и прочего у нас, на Rutor.in. Не нужно использовать прокси, чтобы зайти на рутор, достаточно воспользоваться нашим ресурсом. Все новые фильмы, игры, сериалы, книги и музыка за 2013 и 2014 годы через торрент бесплатно. Скачивайте фильмы в хорошем качестве, игры для пк, xbox, playstation без регистрации. У нас вы найдете новые Зарубежные сериалы и Русские сериалы 2013, 2014, 2015 годов. Оставайтесь с нами, качайте любимые фильмы, игры, сериалы, книги и музыку.
cron