img image001 image001 image001 image001 image001 image001 image001 image001 image001 image001 image001 image001 image001 image001 image001

Planets Sun Sun Sun
Статистика раздачи
Автор: Nickolas3434 | Размер: 745.1 МБ | Добавлен: 01 окт 2014
Раздают: 165    Качают: 22
Скачать торрент
Скачать торрент
Описание торрента

СообщениеДобавлено: 01 окт 2014 

Информация о фильме
Название: Почтальон Пэт
Оригинальное название: Postman Pat: The Movie
Год выхода: 2014
Жанр: Мультфильм, комедия, семейный
Режиссёр: Майкл Д’Иса-Хоган
В ролях: Джим Бродбент, Джейн Карр, Робин Аткин Даунс, Сьюзэн Дюрден, Грег Эллис, Руперт Гринт, Дэн Хилдебранд, Ронан Китинг, Стивен Мэнгэн, Парминдер К. Награ

О фильме:
Сколько нужно почтальонов для спасения мира? Достаточно одного, если он работает в паре с любопытным котом, готовым к любым приключениям.



Страна: Великобритания, США
Студия: Classic Media, RGH Entertainment, Rubicon Group Holding
Продолжительность: 01:27:51
Перевод: Дублированный [Чистый звук]
Оригинальная аудио-дорожка: Нет

Файл
Кодек: XviD
Качество: HDRip
Видео: XviD, 656x352 (1.864), 1048 Кбит/с, 23,976 кадр/с
Аудио: Русский, MP3, 48000 Гц, 128 Кбит/с, 2 канала (Стерео) - Dub (Line)
Субтитры: Нет



General
Complete name : Pochtalion.Pet.2014..HDRip.745MB.avi
Format : AVI
Format/Info : Audio Video Interleave
File size : 745 MiB
Duration : 1h 27mn
Overall bit rate : 1 186 Kbps
Writing application : VirtualDubMod 1.5.10.3 | www.virtualdub-fr.org || (build 2550/release)
Writing library : VirtualDubMod build 2550/release

Video
ID : 0
Format : MPEG-4 Visual
Format profile : Advanced Simple@L5
Format settings, BVOP : 1
Format settings, QPel : No
Format settings, GMC : No warppoints
Format settings, Matrix : Custom
Codec ID : XVID
Codec ID/Hint : XviD
Duration : 1h 27mn
Bit rate : 1 048 Kbps
Width : 656 pixels
Height : 352 pixels
Display aspect ratio : 1.864
Frame rate : 23.976 fps
Color space : YUV
Chroma subsampling : 4:2:0
Bit depth : 8 bits
Scan type : Progressive
Compression mode : Lossy
Bits/(Pixel*Frame) : 0.189
Stream size : 659 MiB (88%)
Writing library : XviD 73

Audio
ID : 1
Format : MPEG Audio
Format version : Version 1
Format profile : Layer 3
Codec ID : 55
Codec ID/Hint : MP3
Duration : 1h 27mn
Bit rate mode : Constant
Bit rate : 128 Kbps
Channel(s) : 2 channels
Sampling rate : 48.0 KHz
Compression mode : Lossy
Stream size : 80.4 MiB (11%)
Alignment : Aligned on interleaves
Interleave, duration : 42 ms (1.00 video frame)
Interleave, preload duration : 504 ms
Writing library : LAME3.99r
Encoding settings : -m s -V 4 -q 0 -lowpass 17 -b 128

Автор рипа - ivandubskoj



   Похожие торренты   Торрент   Размер 
В этой теме нет новых непрочитанных сообщений. Почтальон Пэт / Postman Pat: The Movie (2014) HDRip | D | Чистый звук

1482 | 136

1.37 ГБ

В этой теме нет новых непрочитанных сообщений. Почтальон Пэт / Postman Pat: The Movie (2014) HDRip от ivandubskoj | D | iTunes Russia

369 | 21

1.46 ГБ

В этой теме нет новых непрочитанных сообщений. Почтальон Пэт / Postman Pat: The Movie (2014) HDRip | D | Лицензия | iTunes Russia

559 | 22

1.48 ГБ

В этой теме нет новых непрочитанных сообщений. Почтальон Пэт / Postman Pat: The Movie (2014) BDRip-AVC от ExKinoRay

70 | 12

1.03 ГБ

В этой теме нет новых непрочитанных сообщений. Почтальон Пэт / Postman Pat: The Movie (2014) DVD5 от New-Team | D | Лицензия

58 | 7

4.32 ГБ

В этой теме нет новых непрочитанных сообщений. Почтальон Пэт / Postman Pat: The Movie (2014) BDRip 1080p от Ash61 | 3D-Video | halfOU

155 | 23

4.89 ГБ

В этой теме нет новых непрочитанных сообщений. Почтальон / The Postman (1997) HDRip-AVC

78 | 14

2.2 ГБ




Вы не можете начинать темы
Вы не можете отвечать на сообщения
Вы не можете редактировать свои сообщения
Вы не можете удалять свои сообщения
Вы не можете добавлять вложения

Перейти:  
Для Мосгорсуда, Роскомнадзора и рекламодателей: mosgorsud-torrent[собачка]yandex.ru
 Вход
ppkBB3cker v.2 © 2008-2014 @ PPK
[ Time : 0.100s | 16 Queries | GZIP : Off ]

Торрент трекер RUTOR.IN, Не можете зайти на rutor.org? Какой новый адрес рутор? Какое зеркало рутор? Не работает rutor.org и зеркала? Тогда наш торрент специально для вас. Rutor.in неофициальное зеркало rutor. В случае если у Вас заблокирован rutor или вдруг Вы не можете на него зайти, то Вы без труда сможете скачать бесплатно и без рекламы последние новинки кино, игр, сериалов и прочего у нас, на Rutor.in. Не нужно использовать прокси, чтобы зайти на рутор, достаточно воспользоваться нашим ресурсом. Все новые фильмы, игры, сериалы, книги и музыка за 2013 и 2014 годы через торрент бесплатно. Скачивайте фильмы в хорошем качестве, игры для пк, xbox, playstation без регистрации. У нас вы найдете новые Зарубежные сериалы и Русские сериалы 2013, 2014, 2015 годов. Оставайтесь с нами, качайте любимые фильмы, игры, сериалы, книги и музыку.