img image001 image001 image001 image001 image001 image001 image001 image001 image001 image001 image001 image001 image001 image001 image001

Planets Sun Sun Sun
Статистика раздачи
Автор: Nickolas3434 | Размер: 11.42 ГБ | Добавлен: 02 окт 2014
Раздают: 508    Качают: 72
Скачать торрент
Скачать торрент
Описание торрента

СообщениеДобавлено: 02 окт 2014 

Информация о фильме
Название: Волшебство Хлои
Оригинальное название: Chloe's Closet
Год выхода: 2009
Жанр: мультфильм, приключения, семейный
Режиссер: Джефри Пригфдан

О фильме:
Хлоя — очаровательная девочка четырех лет, которая обожает фантазировать. Когда они с друзьями играют в переодевалки в волшебном шкафу, дети мысленно переносятся в джунгли, открытый космос, на дикий запад или в волшебные земли!

01. Загадочная Радуга
02. Розовая Принцесса
03. Обезьянки Карибского Моря
04. Снежные Звёздочки
05. Забывчивое Эхо
06. Одеялко для Солнышка
07. На Правильном Пути
08. Музыка в Джунглях
09. Идеальная пара
10. Лучшие супер-друзья
11. Ночное приключение
12. Новое имя Малыша
13. Весёлые пекари
14. Танцевальные па

16. В стране динозавров
17. Из любви к искусству
18. Волшебный Сад
19. Достойная замена
20. Среди песков
21. Большое и маленькое
22. Спасатели
23. Лесные феи
24. В гостях у королевы
25. Самый великий волшебник
26. Мастера
27. Доверьте дело бобрам
28. Мы - команда!
29. Неуклюжие акробаты
30. Зубная фея
31. На холодном полюсе
32. Расхитители яиц
33. Рассекая просторы
34. Десять Рыжиков
35. Таланты Джета
36. Прыгучие ботинки
37. Дело о пропавших бананах
38. Удивительные игрушки
39. Пожарная тревога
40. Настоящие ковбои
41. Утёнок летит на юг
42. Битва с семью воронами
43. Город квадратов
44. Лучшие игроки
45. С чего начинается утро
46. Музыкальные таланты
47. Особая посылка
48. Школа волшебников
49. Дорогие игрушки
50. Новые таланты
51. Вместе веселее
52. Новые чудеса
53. Овечки и Пастушки
54. Кинозвёзды
55. Великая пирамида
56. Попрыгунчик
57. Немножко по-другому
58. Спящая красавица
59. Пчелки, большие и маленькие
60. Праздничный обед
61. Вместе веселее-2
62. Удивительный поход
63. Кто мастера боится?
64. Фиеста
65. Быстрее страуса
66. Большой добрый волк
67. Дискотека
68. Модельеры
69. Домик для каждого
70. Красный дракоша
71. Проверь и поверь
72. Сокровище говорящей горы
73. Кто на что способен
74. Талантливые лошадки
75. Командная работа
76. Музыкальные стулья
77. Девять черепашек
78. Праздник трёх поросят
79. В каменном веке
80. Искусство заводить друзей
81. Весёлая ярмарка
82. Танцуй, Лепрекон, танцуй
83. Летающая четвёрка
84. Волшебная пыль
85. Необычный ковбой
86. Северное сияние
87. Весёлая гонка
88. Волшебные тюльпаны
89. Сердитые панды, смеющийся дракон
90. Хлоя в Японии
91. На балу у Жирафа
92. Тортики с морошкой
93. Бабочка-красавица
94. Песни в океане
95. Праздничная песенка
96. Пропавшая звёздочка
97. Прекрасная Пэтти
98. Доктор для Несси
99. Весёлые букеты

100. Лесные фотографии
101. Паровозик Ту-ту-ту
102. Весёлый поход
103. День рождения королевы
104. Вальс цветов

Бонусы: песенки
01. Песенка лягушат
02. Песенка пиратов
03. Главная песенка мультфильма
04. Песенка про звёзды
05. Короткая розовая песенка
06. Песенка - танцуем
07. Принцесса снега
08. Песенка про гонки летним утром
09. Песенка пастуха
10. Песенка на морских коньках
11. Колыбельная песенка

Официальный сайт

Страна: США, Германия, Великобритания
Студия: European Film Partners, Mike Young Productions, TFC Trickompany Filmproduktion GmbH
Продолжительность: 00:11:00 серия
Перевод: Дублированный

Файл
Кодек: XviD / AC3
Качество: WEBRip
Видео: MPEG4, XviD, 720x400 (16:9), 25.000 fps, 1 201 Kbps (0.167 bit/pixel)
Звук: AC-3, 48.0 KHz, 2 ch, 192 Kbps, CBR

General
Complete name : /Волшебство Хлои.Xvid.-merci/01. Загадочная Радуга.Xvid.-merci.avi
Format : AVI
Format/Info : Audio Video Interleave
File size : 111 MiB
Duration : 11mn 1s
Overall bit rate : 1 403 Kbps
Writing application : VirtualDubMod 1.5.10.3 | www.virtualdub-fr.org || (build 2550/release)
Writing library : VirtualDubMod build 2550/release

Video
ID : 0
Format : MPEG-4 Visual
Format profile : Advanced Simple@L5
Format settings, BVOP : 2
Format settings, QPel : No
Format settings, GMC : No warppoints
Format settings, Matrix : Default (MPEG)
Codec ID : XVID
Codec ID/Hint : XviD
Duration : 11mn 1s
Bit rate : 1 201 Kbps
Width : 720 pixels
Height : 400 pixels
Display aspect ratio : 16:9
Frame rate : 25.000 fps
Color space : YUV
Chroma subsampling : 4:2:0
Bit depth : 8 bits
Scan type : Progressive
Compression mode : Lossy
Bits/(Pixel*Frame) : 0.167
Stream size : 94.8 MiB (86%)
Writing library : XviD 73

Audio
ID : 1
Format : AC-3
Format/Info : Audio Coding 3
Mode extension : CM (complete main)
Format settings, Endianness : Big
Codec ID : 2000
Duration : 11mn 1s
Bit rate mode : Constant
Bit rate : 192 Kbps
Channel(s) : 2 channels
Channel positions : Front: L R
Sampling rate : 48.0 KHz
Bit depth : 16 bits
Compression mode : Lossy
Stream size : 15.1 MiB (14%)
Alignment : Split accross interleaves
Interleave, duration : 40 ms (1.00 video frame)
Interleave, preload duration : 500 ms



   Похожие торренты   Торрент   Размер 
В этой теме нет новых непрочитанных сообщений. Волшебство Хлои / Chloe's Closet [01-79 + Bonus] (2009) WEBRip | D

13 | 15

8.73 ГБ

В этой теме нет новых непрочитанных сообщений. Волшебство Хлои / Chloe's Closet [01-76 + Bonus] (2009) WEBRip | D

44 | 53

8.39 ГБ

В этой теме нет новых непрочитанных сообщений. Волшебство Хлои / Chloe's Closet [01-98 + Bonus] (2009) WEBRip | D

17 | 8

10.86 ГБ

В этой теме нет новых непрочитанных сообщений. Волшебство Хлои / Chloe's Closet [01-96 + Bonus] (2009) WEBRip | D

334 | 400

10.63 ГБ

В этой теме нет новых непрочитанных сообщений. Волшебство Хлои / Chloe's Closet [01-75 + Bonus] (2009) WEBRip | D

142 | 103

8.28 ГБ

В этой теме нет новых непрочитанных сообщений. Девять жизней Хлои Кинг / The Nine Lives of Chloe King [01x08] (2011) HDTVRip

0 | 2

361.17 МБ

В этой теме нет новых непрочитанных сообщений. Девять жизней Хлои Кинг / The Nine Lives of Chloe King [S01] (2011) WEB-DLRip | AXN Sci-Fi Россия

6 | 4

4.88 ГБ




Вы не можете начинать темы
Вы не можете отвечать на сообщения
Вы не можете редактировать свои сообщения
Вы не можете удалять свои сообщения
Вы не можете добавлять вложения

Перейти:  
Для Мосгорсуда, Роскомнадзора и рекламодателей: mosgorsud-torrent[собачка]yandex.ru
 Вход
ppkBB3cker v.2 © 2008-2014 @ PPK
[ Time : 0.035s | 15 Queries | GZIP : Off ]

Торрент трекер RUTOR.IN, Не можете зайти на rutor.org? Какой новый адрес рутор? Какое зеркало рутор? Не работает rutor.org и зеркала? Тогда наш торрент специально для вас. Rutor.in неофициальное зеркало rutor. В случае если у Вас заблокирован rutor или вдруг Вы не можете на него зайти, то Вы без труда сможете скачать бесплатно и без рекламы последние новинки кино, игр, сериалов и прочего у нас, на Rutor.in. Не нужно использовать прокси, чтобы зайти на рутор, достаточно воспользоваться нашим ресурсом. Все новые фильмы, игры, сериалы, книги и музыка за 2013 и 2014 годы через торрент бесплатно. Скачивайте фильмы в хорошем качестве, игры для пк, xbox, playstation без регистрации. У нас вы найдете новые Зарубежные сериалы и Русские сериалы 2013, 2014, 2015 годов. Оставайтесь с нами, качайте любимые фильмы, игры, сериалы, книги и музыку.