img image001 image001 image001 image001 image001 image001 image001 image001 image001 image001 image001 image001 image001 image001 image001

Planets Sun Sun Sun
Статистика раздачи
Автор: Nickolas3434 | Размер: 1.93 ГБ | Добавлен: 02 окт 2014
Раздают: 675    Качают: 30
Скачать торрент
Скачать торрент
Описание торрента

СообщениеДобавлено: 02 окт 2014 

Информация о фильме
Название: Барби и потайная дверь
Оригинальное название: Barbie and The Secret Door
Год выпуска: 2014
Жанр: Мультфильм, семейный, полнометражный
Выпущено: США, Rainmaker Entertainment
Режиссер: Карен Ллойд
В ролях: Келли Шеридан, Кэти Краун

О фильме: В этом мультфильме Барби предстанет в образе принцессы Алексы, которой больше нравится читать книги, чем выполнять королевские обязанности и ритуалы. Однажды Алекса находит тайную дверь в своём королевском саду, эта дверь оказывается копией той, про которую читала принцесса. Принцесса Алекса открывает дверь и попадает в волшебный мир, наполненный сказочными созданиями. В этом мире принцесса встречает Роми и Нори — русалку и принцессу, которые рассказывают ей об испорченной юной правительнице этого мира, старающейся похитить и забрать всю магию.



Файл
Качество: BDRip (AVC)
Видео: MPEG-4 AVC, 2533 Кбит/с, 1024x576
Аудио: Русский, английский (AC3, 6 ch, 448 Кбит/с)
Продолжительность: 01:20:51
Перевод: Дублированный
Субтитры: Русские (Forced), английские

General
Unique ID : 219186216124358712788176679745496720223 (0xA4E5BACDD23F5A03B0180806D026A35F)
Complete name : C:Barbie.and.The.Secret.Door.2014.D.BDRip.AVC.ExKinoRay.mkv
Format : Matroska
Format version : Version 2
File size : 1.93 GiB
Duration : 1h 20mn
Overall bit rate : 3 414 Kbps
Movie name : Barbie and The Secret Door 2014 from ExKinoRay
Encoded date : UTC 2014-10-01 17:25:39
Writing application : mkvmerge v4.9.1 ('Ich will') built on Jul 11 2011 23:53:15
Writing library : libebml v1.2.1 + libmatroska v1.1.1

Video
ID : 1
Format : AVC
Format/Info : Advanced Video Codec
Format profile : High@L4.1
Format settings, CABAC : Yes
Format settings, ReFrames : 9 frames
Codec ID : V_MPEG4/ISO/AVC
Duration : 1h 20mn
Bit rate : 2 533 Kbps
Width : 1 024 pixels
Height : 576 pixels
Display aspect ratio : 16:9
Frame rate mode : Constant
Frame rate : 23.976 fps
Color space : YUV
Chroma subsampling : 4:2:0
Bit depth : 8 bits
Scan type : Progressive
Bits/(Pixel*Frame) : 0.179
Stream size : 1.38 GiB (72%)
Title : Enigma-Vladislav71
Writing library : x264 core 116 r2044 392e762
Encoding settings : cabac=1 / ref=9 / deblock=1:-2:-2 / analyse=0x3:0x113 / me=umh / subme=9 / psy=1 / psy_rd=1.00:0.20 / mixed_ref=1 / me_range=32 / chroma_me=1 / trellis=2 / 8x8dct=1 / cqm=0 / deadzone=21,11 / fast_pskip=0 / chroma_qp_offset=-3 / threads=12 / sliced_threads=0 / nr=0 / decimate=0 / interlaced=0 / bluray_compat=0 / constrained_intra=0 / bframes=9 / b_pyramid=2 / b_adapt=2 / b_bias=0 / direct=3 / weightb=1 / open_gop=0 / weightp=2 / keyint=240 / keyint_min=23 / scenecut=40 / intra_refresh=0 / rc=2pass / mbtree=0 / bitrate=2533 / ratetol=1.0 / qcomp=0.60 / qpmin=0 / qpmax=69 / qpstep=4 / cplxblur=20.0 / qblur=0.5 / ip_ratio=1.40 / pb_ratio=1.30 / aq=1:1.00
Language : English
Default : Yes
Forced : No

Audio #1
ID : 2
Format : AC-3
Format/Info : Audio Coding 3
Mode extension : CM (complete main)
Format settings, Endianness : Big
Codec ID : A_AC3
Duration : 1h 20mn
Bit rate mode : Constant
Bit rate : 448 Kbps
Channel(s) : 6 channels
Channel positions : Front: L C R, Side: L R, LFE
Sampling rate : 48.0 KHz
Bit depth : 16 bits
Compression mode : Lossy
Stream size : 259 MiB (13%)
Title : DUB
Language : Russian
Default : Yes
Forced : No

Audio #2
ID : 3
Format : AC-3
Format/Info : Audio Coding 3
Mode extension : CM (complete main)
Format settings, Endianness : Big
Codec ID : A_AC3
Duration : 1h 20mn
Bit rate mode : Constant
Bit rate : 448 Kbps
Channel(s) : 6 channels
Channel positions : Front: L C R, Side: L R, LFE
Sampling rate : 48.0 KHz
Bit depth : 16 bits
Compression mode : Lossy
Stream size : 259 MiB (13%)
Language : English
Default : No
Forced : No

Text #1
ID : 4
Format : UTF-8
Codec ID : S_TEXT/UTF8
Codec ID/Info : UTF-8 Plain Text
Title : Forced
Language : Russian
Default : Yes
Forced : No

Text #2
ID : 5
Format : UTF-8
Codec ID : S_TEXT/UTF8
Codec ID/Info : UTF-8 Plain Text
Language : English
Default : No
Forced : No

Menu
00:00:00.000 : :chapter 0
00:05:19.569 : :chapter 1
00:10:43.643 : :chapter 2
00:16:01.543 : :chapter 3
00:21:38.130 : :chapter 4
00:28:24.369 : :chapter 5
00:31:49.490 : :chapter 6
00:35:10.608 : :chapter 7
00:42:33.509 : :chapter 8
00:52:11.128 : :chapter 9
01:04:01.128 : :chapter 10
01:13:05.881 : :chapter 11)






Релиз от:

Авторы релиза:



   Похожие торренты   Торрент   Размер 
В этой теме нет новых непрочитанных сообщений. Барби и потайная дверь / Barbie and the Secret Door (2014) BDRip 720p от ExKinoRay | D | Лицензия

442 | 20

3.58 ГБ

В этой теме нет новых непрочитанных сообщений. Барби и потайная дверь / Barbie and the Secret Door (2014) BDRip 1080p от ExKinoRay | D | Лицензия

274 | 19

5.73 ГБ

В этой теме нет новых непрочитанных сообщений. Барби и потайная дверь / Barbie and the Secret Door (2014) HDRip | D | Лицензия

887 | 67

743.91 МБ

В этой теме нет новых непрочитанных сообщений. Барби и потайная дверь / Barbie and The Secret Door (2014) BDRip-AVC | iPad | D

172 | 11

2.01 ГБ

В этой теме нет новых непрочитанных сообщений. Барби и потайная дверь / Barbie and The Secret Door (2014) BDRip 720 от SuperMin

350 | 27

2.21 ГБ

В этой теме нет новых непрочитанных сообщений. Барби и потайная дверь / Barbie and the Secret Door (2014) Blu-ray 1080p | EUR Transfer | D

16 | 10

36.03 ГБ

В этой теме нет новых непрочитанных сообщений. Барби: Жемчужная Принцесса / Barbie: The Pearl Princess (2014) BDRip-AVC от ExKinoRay | Лицензия

144 | 50

2.09 ГБ




Вы не можете начинать темы
Вы не можете отвечать на сообщения
Вы не можете редактировать свои сообщения
Вы не можете удалять свои сообщения
Вы не можете добавлять вложения

Перейти:  
Для Мосгорсуда, Роскомнадзора и рекламодателей: mosgorsud-torrent[собачка]yandex.ru
 Вход
ppkBB3cker v.2 © 2008-2014 @ PPK
[ Time : 0.039s | 16 Queries | GZIP : Off ]

Торрент трекер RUTOR.IN, Не можете зайти на rutor.org? Какой новый адрес рутор? Какое зеркало рутор? Не работает rutor.org и зеркала? Тогда наш торрент специально для вас. Rutor.in неофициальное зеркало rutor. В случае если у Вас заблокирован rutor или вдруг Вы не можете на него зайти, то Вы без труда сможете скачать бесплатно и без рекламы последние новинки кино, игр, сериалов и прочего у нас, на Rutor.in. Не нужно использовать прокси, чтобы зайти на рутор, достаточно воспользоваться нашим ресурсом. Все новые фильмы, игры, сериалы, книги и музыка за 2013 и 2014 годы через торрент бесплатно. Скачивайте фильмы в хорошем качестве, игры для пк, xbox, playstation без регистрации. У нас вы найдете новые Зарубежные сериалы и Русские сериалы 2013, 2014, 2015 годов. Оставайтесь с нами, качайте любимые фильмы, игры, сериалы, книги и музыку.
cron