img image001 image001 image001 image001 image001 image001 image001 image001 image001 image001 image001 image001 image001 image001 image001

Planets Sun Sun Sun
Статистика раздачи
Автор: Nickolas3434 | Размер: 3.18 ГБ | Добавлен: 03 окт 2014
Раздают: 49    Качают: 2
Скачать торрент
Скачать торрент
Описание торрента

СообщениеДобавлено: 03 окт 2014 

Hot Wheels: Начало приключений / Team Hot Wheels: The Origins of Awesome (2014) BDRip 720p | ATV | D


Год выпуска: 2014
Производство: США / © 2014 Mattel, Inc. All Rights Reserved.
Жанр: Мультфильм, приключения, семейный, детский, комедия, полнометражный

Режиссер: Метт Деннер
В ролях: Грант Джордж, Дэвид Лодж, Николас Ройе, Бен Дискин, Фарук Таухид

Описание:
В самом мееееедленном городке мира четверо счастливчиков обнаруживают, что жизнь становится намного интересней, если слегка... поддать газку! Познакомьтесь с Гейджем, Уайеттом, Брэндоном и Рэттом. Эти ребята рождены для гонок. Поодиночке они отлично подготовленные рэйсеры, но вместе становятся настоящей Командой Хот Вилс! Однажды по городу с ревом проносится загадочная черная машина, оставив после себя невероятную оранжевую трассу, а кроме того – сногсшибательные перемены и бушующих монстров. Отправляйтесь вместе с Командой Хот Вилс в захватывающее приключение, в котором ребятам предстоит столкнуться с Машинами-мутантами, проложить путь по извилистой трассе, стать еще дружнее и, конечно, спасти свой родной город!


Продолжительность: 01:18:00
Перевод: Дублированный
Cубтитры: Отсутствуют

Качество: BDRip [720p]
Видео: MPEG-4 AVC/H.264, 1280x720 (16:9), 4 400 kbps, 23.976 fps
Аудио 1: Русский/Дублированный, AAC / 2.0 / 160 Kbps / 48.0 KHz
Аудио 2: Русский/Дублированный, AC3 / 5.1 / 640 Kbps / 48.0 KHz
Аудио 3: Английский/Оригинальный, AAC / 2.0 / 160 Kbps / 48.0 KHz
Аудио 4: Английский/Оригинальный, AC3 / 5.1 / 448 Kbps / 48.0 KHz
Код:
Sort Name: Team Hot Wheels: The Origin of Awesome!
XID: Apple:vendor_id:2014-838405
Content ID: 896236282
Copyright: © 2014 Mattel, Inc. All Rights Reserved.
ScreenWriters: Дерек Дресслер
Producers: Роб Хаднат
Director: Мэтт Дэннер
Cast: Grant George (Gage), David Lodge (Rhett), Ben Diskin (Brandon), Nicolas Roye (Wyatt), Faruq Tauheed (Larry)
Rating: Unrated
Long Deion: В самом мееееедленном городке мира четверо счастливчиков обнаруживают, что жизнь становится намного интересней, если слегка... поддать газку! Познакомьтесь с Гейджем, Уайеттом, Брэндоном и Рэттом. Эти ребята рождены для гонок. Поодиночке они отлично подготовленные рейсеры, но вместе становятся настоящей КОМАНДОЙ ХОТ ВИЛС! Однажды по городу с ревом проносится загадочная черная машина, оставив после себя невероятную оранжевую трассу, а кроме того – сногсшибательные перемены и бушующих монстров. Отправляйтесь вместе с Командой Хот Вилс в захватывающее приключение, в котором ребятам предстоит столкнуться с Машинами-мутантами, проложить путь по извилистой трассе, стать еще дружнее и, конечно, спасти свой родной город!
Deion: В самом мееееедленном городке мира четверо счастливчиков обнаруживают, что жизнь становится намного интересней, если слегка... поддать газку! Познакомьтесь с Гейджем, Уайеттом, Брэндоном и Рэттом. Эти ребята рождены для гонок. Поодиночке они отлично
Release Date: 2014-09-02T07:00:00Z
Genre: Kids & Family
Artist: Matt Danner
Name: Hot Wheels: Начало приключений
Код:
General
Complete name                            : C:CREATE264mod1outTeam.Hot.Wheels.2014.720p.m4v
Format                                   : MPEG-4
Codec ID                                 : M4V
File size                                : 3.18 GiB
Duration                                 : 1h 18mn
Overall bit rate mode                    : Variable
Overall bit rate                         : 5 828 Kbps
Movie name                               : Hot Wheels: Начало приключений
Performer                                : Matt Danner
Genre                                    : Kids & Family
ContentType                              : Short Film
Deion                              : В самом мееееедленном городке мира четверо счастливчиков обнаруживают, что жизнь становится намного интересней, если слегка... поддать газку! Познакомьтесь с Гейджем, Уайеттом, Брэндоном и Рэттом. Эти ребята рождены для гонок. Поодиночке они отлично
Recorded date                            : UTC 2014-09-02 07:00:00
Encoded date                             : UTC 2014-10-02 18:15:05
Tagged date                              : UTC 2014-10-02 18:19:43
Copyright                                : © 2014 Mattel, Inc. All Rights Reserved.
Cover                                    : Yes
ContentRating                            : mpaa|Unrated|600|

Title/Sort                               : Team Hot Wheels: The Origin of Awesome!
LongDeion                          : В самом мееееедленном городке мира четверо счастливчиков обнаруживают, что жизнь становится намного интересней, если слегка... поддать газку! Познакомьтесь с Гейджем, Уайеттом, Брэндоном и Рэттом. Эти ребята рождены для гонок. Поодиночке они отлично подготовленные рейсеры, но вместе становятся настоящей КОМАНДОЙ ХОТ ВИЛС! Однажды по городу с ревом проносится загадочная черная машина, оставив после себя невероятную оранжевую трассу, а кроме того – сногсшибательные перемены и бушующих монстров. Отправляйтесь вместе с Командой Хот Вилс в захватывающее приключение, в котором ребятам предстоит столкнуться с Машинами-мутантами, проложить путь по извилистой трассе, стать еще дружнее и, конечно, спасти свой родной город!
HDVideo                                  : Yes
AppleStoreCatalogID                      : 896236282
Vendor                                   : Apple:vendor_id:2014-838405

Video
ID                                       : 1
Format                                   : AVC
Format/Info                              : Advanced Video Codec
Format profile                           : High@L4.1
Format settings, CABAC                   : Yes
Format settings, ReFrames                : 9 frames
Codec ID                                 : avc1
Codec ID/Info                            : Advanced Video Coding
Duration                                 : 1h 18mn
Bit rate                                 : 4 410 Kbps
Maximum bit rate                         : 15.6 Mbps
Width                                    : 1 280 pixels
Height                                   : 720 pixels
Display aspect ratio                     : 16:9
Frame rate mode                          : Constant
Frame rate                               : 23.976 fps
Color space                              : YUV
Chroma subsampling                       : 4:2:0
Bit depth                                : 8 bits
Scan type                                : Progressive
Bits/(Pixel*Frame)                       : 0.200
Stream size                              : 2.40 GiB (76%)
Language                                 : English
Encoded date                             : UTC 2014-10-02 18:15:05
Tagged date                              : UTC 2014-10-02 18:15:37
Color primaries                          : BT.709
Transfer characteristics                 : BT.709
Matrix coefficients                      : BT.709

Audio #1
ID                                       : 2
Format                                   : AAC
Format/Info                              : Advanced Audio Codec
Format profile                           : LC
Codec ID                                 : 40
Duration                                 : 1h 18mn
Bit rate mode                            : Variable
Bit rate                                 : 158 Kbps
Maximum bit rate                         : 205 Kbps
Channel(s)                               : 2 channels
Channel positions                        : Front: L R
Sampling rate                            : 48.0 KHz
Compression mode                         : Lossy
Stream size                              : 88.3 MiB (3%)
Title                                    : AAC DUB
Language                                 : Russian
Encoded date                             : UTC 2014-10-02 18:09:02
Tagged date                              : UTC 2014-10-02 18:15:37

Audio #2
ID                                       : 3
Format                                   : AC-3
Format/Info                              : Audio Coding 3
Mode extension                           : CM (complete main)
Format settings, Endianness              : Big
Codec ID                                 : ac-3
Duration                                 : 1h 18mn
Bit rate mode                            : Constant
Bit rate                                 : 640 Kbps
Channel(s)                               : 6 channels
Channel positions                        : Front: L C R, Side: L R, LFE
Sampling rate                            : 48.0 KHz
Bit depth                                : 16 bits
Compression mode                         : Lossy
Stream size                              : 357 MiB (11%)
Title                                    : AC3 DUB
Language                                 : Russian
Encoded date                             : UTC 2014-10-02 18:15:32
Tagged date                              : UTC 2014-10-02 18:15:37

Audio #3
ID                                       : 4
Format                                   : AAC
Format/Info                              : Advanced Audio Codec
Format profile                           : LC
Codec ID                                 : 40
Duration                                 : 1h 18mn
Bit rate mode                            : Variable
Bit rate                                 : 159 Kbps
Maximum bit rate                         : 204 Kbps
Channel(s)                               : 2 channels
Channel positions                        : Front: L R
Sampling rate                            : 48.0 KHz
Compression mode                         : Lossy
Stream size                              : 88.7 MiB (3%)
Language                                 : English
Encoded date                             : UTC 2014-10-02 18:13:42
Tagged date                              : UTC 2014-10-02 18:15:37

Audio #4
ID                                       : 5
Format                                   : AC-3
Format/Info                              : Audio Coding 3
Mode extension                           : CM (complete main)
Format settings, Endianness              : Big
Codec ID                                 : ac-3
Duration                                 : 1h 18mn
Bit rate mode                            : Constant
Bit rate                                 : 448 Kbps
Channel(s)                               : 6 channels
Channel positions                        : Front: L C R, Side: L R, LFE
Sampling rate                            : 48.0 KHz
Bit depth                                : 16 bits
Compression mode                         : Lossy
Stream size                              : 250 MiB (8%)
Language                                 : English
Encoded date                             : UTC 2014-10-02 18:15:35
Tagged date                              : UTC 2014-10-02 18:15:37




   Похожие торренты   Торрент   Размер 
В этой теме нет новых непрочитанных сообщений. Hot Wheels: Начало приключений / Team Hot Wheels: The Origins of Awesome (2014) BDRip 1080p | ATV | D

67 | 5

3.82 ГБ

В этой теме нет новых непрочитанных сообщений. Hot Wheels: Начало приключений / Team Hot Wheels: The Origins of Awesome (2014) BDRip-AVC | iPad | D

118 | 12

1.76 ГБ

В этой теме нет новых непрочитанных сообщений. Hot Wheels: Начало приключений / Hot Wheels: The Origins of Awesome (2014) DVD9 от New-Team | D | Лицензия

21 | 9

5.23 ГБ

В этой теме нет новых непрочитанных сообщений. Hot Wheels: Начало приключений / Hot Wheels: The Origins of Awesome (2014) DVD5 от New-Team | D | Сжатый

20 | 12

3.89 ГБ

В этой теме нет новых непрочитанных сообщений. Hot Wheels: Начало приключений / Team Hot Wheels: The Origins of Awesome (2014) Blu-Ray Remux 1080p от KinoRay | Лицензия

17 | 9

20 ГБ

В этой теме нет новых непрочитанных сообщений. Hot Wheels: Начало приключений / Hot Wheels: The Origins of Awesome (2014) HDRip | Лицензия

1092 | 39

1.46 ГБ

В этой теме нет новых непрочитанных сообщений. Спецотряд Кобра 11: Burning Wheels / Alarm for Cobra 11: Crash Time 2 - Burning Wheels / Alarm für Cobra 11: Crash Time 2 - Burning Wheels (2009) РС | Лицензия

189 | 60

7.18 ГБ




Вы не можете начинать темы
Вы не можете отвечать на сообщения
Вы не можете редактировать свои сообщения
Вы не можете удалять свои сообщения
Вы не можете добавлять вложения

Перейти:  
Для Мосгорсуда, Роскомнадзора и рекламодателей: mosgorsud-torrent[собачка]yandex.ru
 Вход
ppkBB3cker v.2 © 2008-2014 @ PPK
[ Time : 0.027s | 15 Queries | GZIP : Off ]

Торрент трекер RUTOR.IN, Не можете зайти на rutor.org? Какой новый адрес рутор? Какое зеркало рутор? Не работает rutor.org и зеркала? Тогда наш торрент специально для вас. Rutor.in неофициальное зеркало rutor. В случае если у Вас заблокирован rutor или вдруг Вы не можете на него зайти, то Вы без труда сможете скачать бесплатно и без рекламы последние новинки кино, игр, сериалов и прочего у нас, на Rutor.in. Не нужно использовать прокси, чтобы зайти на рутор, достаточно воспользоваться нашим ресурсом. Все новые фильмы, игры, сериалы, книги и музыка за 2013 и 2014 годы через торрент бесплатно. Скачивайте фильмы в хорошем качестве, игры для пк, xbox, playstation без регистрации. У нас вы найдете новые Зарубежные сериалы и Русские сериалы 2013, 2014, 2015 годов. Оставайтесь с нами, качайте любимые фильмы, игры, сериалы, книги и музыку.