img image001 image001 image001 image001 image001 image001 image001 image001 image001 image001 image001 image001 image001 image001 image001

Planets Sun Sun Sun
Статистика раздачи
Автор: Nickolas3434 | Размер: 1.46 ГБ | Добавлен: 04 окт 2014
Раздают: 1231    Качают: 107
Скачать торрент
Скачать торрент
Описание торрента

СообщениеДобавлено: 04 окт 2014 

Информация о фильме:
Название: Букашки. Приключение в Долине муравьев
Оригинальное название: Minuscule - La vallee des fourmis perdues
Год выхода: 2013
Жанр: мультфильм, приключения, семейный
Режиссер: Хелен Жиро, Томас Забо
В ролях: Букашки, таракашки

О фильме:
Активные и любознательные черные муравьишки обнаруживают брошенную после пикника коробку с сахаром. Дружный отряд муравьишек вместе с Божьей коровкой решают переправить лакомство в муравейник. Но сладкая коробка уже успела нарушить спокойствие во всей долине, и свои планы на лакомство появились у других обитателей леса, в частности — у злобных красных муравьев-захватчиков. А, стало быть, на пути к заветной цели черным муравьишкам предстоит преодолеть массу опасностей и приключений.



Страна: Франция, Бельгия
Продолжительность: 01:28:49
Перевод: Не требуется
Субтитры: Русские (Forced)
Навигация по главам: Есть

Файл:
Формат: MKV
Качество: BDRip-AVC (Источник: Blu-Ray Remux 1080p)
Видео: MPEG-4 AVC, 1032x460, 23.976 кадр/с, 1905 Кбит/с
Аудио: AC3, 6 ch, 448 Кбит/с
Размер: 1,46 Gb

Общее
Уникальный идентификатор : 244139611130713111495870233175805770950 (0xB7AB942A30A93EBBAD050F2A9E65BCC6)
Полное имя : Bukashki.(2014).BDRip-AVC.mkv
Формат : Matroska
Версия формата : Version 4 / Version 2
Размер файла : 1,46 Гбайт
Продолжительность : 1 ч. 28 м.
Общий поток : 2355 Кбит/сек
Название фильма : Minuscule - La vallée des fourmis perdues [2013] BDRip-AVC
Дата кодирования : UTC 2014-10-03 18:15:12
Программа кодирования : mkvmerge v6.6.0 ('The Edge Of The In Between') built on Dec 1 2013 17:55:00
Библиотека кодирования : libebml v1.3.0 + libmatroska v1.4.1

Видео
Идентификатор : 1
Формат : AVC
Формат/Информация : Advanced Video Codec
Профиль формата : High@L4.1
Параметр CABAC формата : Да
Параметр ReFrames формата : 10 кадров
Идентификатор кодека : V_MPEG4/ISO/AVC
Продолжительность : 1 ч. 28 м.
Битрейт : 1905 Кбит/сек
Ширина : 1032 пикселя
Высота : 460 пикселей
Соотношение сторон : 2,25:1
Режим частоты кадров : Постоянный
Частота кадров : 23,976 кадра/сек
Цветовое пространство : YUV
Субдискретизация насыщенности : 4:2:0
Битовая глубина : 8 бит
Тип развёртки : Прогрессивная
Бит/(Пиксели*Кадры) : 0.167
Размер потока : 1,15 Гбайт (79%)
Библиотека кодирования : x264 core 130 r2273 b3065e6
Настройки программы : cabac=1 / ref=10 / deblock=1:-2:-1 / analyse=0x3:0x133 / me=umh / subme=11 / psy=1 / psy_rd=1.05:0.05 / mixed_ref=1 / me_range=48 / chroma_me=1 / trellis=2 / 8x8dct=1 / cqm=0 / deadzone=21,11 / fast_pskip=0 / chroma_qp_offset=-3 / threads=9 / lookahead_threads=6 / sliced_threads=0 / nr=0 / decimate=0 / interlaced=0 / bluray_compat=0 / constrained_intra=0 / bframes=11 / b_pyramid=2 / b_adapt=2 / b_bias=0 / direct=3 / weightb=1 / open_gop=0 / weightp=2 / keyint=250 / keyint_min=22 / scenecut=40 / intra_refresh=0 / rc_lookahead=60 / rc=2pass / mbtree=0 / bitrate=1905 / ratetol=1.0 / qcomp=0.70 / qpmin=0 / qpmax=69 / qpstep=4 / cplxblur=20.0 / qblur=0.5 / vbv_maxrate=50000 / vbv_bufsize=62500 / nal_hrd=none / ip_ratio=1.35 / pb_ratio=1.25 / aq=1:0.80
Язык : French
Default : Да
Forced : Нет

Аудио
Идентификатор : 2
Формат : AC-3
Формат/Информация : Audio Coding 3
Расширение режима : CM (complete main)
Параметр Endianness формата : Big
Идентификатор кодека : A_AC3
Продолжительность : 1 ч. 28 м.
Вид битрейта : Постоянный
Битрейт : 448 Кбит/сек
Каналы : 6 каналов
Расположение каналов : Front: L C R, Side: L R, LFE
Частота : 48,0 КГц
Битовая глубина : 16 бит
Метод сжатия : С потерями
Размер потока : 285 Мбайт (19%)
Заголовок : Original | DD 5.1 @ 448 kbps - Blu-Ray
Язык : French
Default : Да
Forced : Нет

Текст
Идентификатор : 3
Формат : UTF-8
Идентификатор кодека : S_TEXT/UTF8
Идентификатор кодека/Информация : UTF-8 Plain Text
Заголовок : форс.
Язык : Russian
Default : Да
Forced : Нет

Меню
00:00:00.000 : en:(01)00:00:00:000
00:07:47.341 : en:(02)00:07:47:341
00:12:19.280 : en:(03)00:12:19:280
00:20:07.414 : en:(04)00:20:07:414
00:26:19.202 : en:(05)00:26:19:202
00:32:07.800 : en:(06)00:32:07:800
00:37:00.635 : en:(07)00:37:00:635
00:45:58.547 : en:(08)00:45:58:547
00:53:51.061 : en:(09)00:53:51:061
01:00:25.413 : en:(10)01:00:25:413
01:08:05.664 : en:(11)01:08:05:664
01:13:59.601 : en:(12)01:13:59:601
01:19:39.024 : en:(13)01:19:39:024
01:23:12.779 : en:(14)01:23:12:779
01:28:49.032 : en:(15)01:28:49:032






   Похожие торренты   Торрент   Размер 
В этой теме нет новых непрочитанных сообщений. Букашки. Приключение в Долине муравьев / Minuscule - La vallée des fourmis perdues (2013) BDRip-AVC от HELLYWOOD

524 | 34

1.46 ГБ

В этой теме нет новых непрочитанных сообщений. Букашки. Приключение в Долине муравьев / Minuscule - Minuscule - La vallee des fourmis perdues BDRip 1080p от R.G. HD-Films | 3D | 120 fps

118 | 21

15.15 ГБ

В этой теме нет новых непрочитанных сообщений. Букашки. Приключение в Долине муравьев / Minuscule - La vallée des fourmis perdues (2013) BDRip 720p от HELLYWOOD

747 | 56

2.91 ГБ

В этой теме нет новых непрочитанных сообщений. Букашки. Приключение в Долине муравьев / Minuscule - La vallée des fourmis perdues (2013) WEB-DLRip

2383 | 218

1.37 ГБ

В этой теме нет новых непрочитанных сообщений. Букашки. Приключение в Долине муравьев / Minuscule - La vallée des fourmis perdues (2013) WEB-DLRip

334 | 40

701.17 МБ

В этой теме нет новых непрочитанных сообщений. Букашки. Приключение в Долине муравьев / Minuscule - La vallée des fourmis perdues (2013) WEB-DLRip

521 | 24

1.37 ГБ

В этой теме нет новых непрочитанных сообщений. Букашки. Приключение в Долине муравьев / Minuscule - La vallée des fourmis perdues (2013) WEB-DL 720p

948 | 78

1.15 ГБ




Вы не можете начинать темы
Вы не можете отвечать на сообщения
Вы не можете редактировать свои сообщения
Вы не можете удалять свои сообщения
Вы не можете добавлять вложения

Перейти:  
Для Мосгорсуда, Роскомнадзора и рекламодателей: mosgorsud-torrent[собачка]yandex.ru
 Вход
ppkBB3cker v.2 © 2008-2014 @ PPK
[ Time : 0.130s | 18 Queries | GZIP : Off ]

cron