img image001 image001 image001 image001 image001 image001 image001 image001 image001 image001 image001 image001 image001 image001 image001

Planets Sun Sun Sun
Статистика раздачи
Автор: Nickolas3434 | Размер: 4.27 ГБ | Добавлен: 09 окт 2014
Раздают: 322    Качают: 48
Скачать торрент
Скачать торрент
Описание торрента

СообщениеДобавлено: 09 окт 2014 

Год выпуска: 2014
Жанр: Мультфильм
Выпущено: США
Режиссер: Уильям Лау, Сильвен Блэ
Роли озвучивали: Лора Бэйли, Кейт Хиггинс, Паула Родс, Хэвиланд Стиллвелл, Америка Янг, Эрин Фицджералд, Дэйв Митчелл, Сью Свон, Джони Гуд, Селеста Хендерсон
Продолжительность: 01:13:33
Перевод: Дублированный Лицензия [BD-CEE]
О фильме: Когда лаборатории в результате аварии появляются 4 новых монстра и 8 монстров перемешиваются телами, Фрэнки и новый гибридный студент пытается помочь ей привести друзей из Монстрических Мутаций в норму и остановить научный эксперимент, который пошел не так, прежде чем аппарат в лаборатории сломается окончательно.

Качество: BDRip [thx IntroMan за исходник]
Видео: AVC, 1920x1080 (16:9), 23.976 fps, 6 992 Kbps (0.141 bit/pixel)
Аудио #1: AC-3, 48.0 KHz, 6 ch, 640 Kbps, CBR (Russian)
Аудио #2: AC-3, 48.0 KHz, 6 ch, 640 Kbps, CBR (English)
Размер: 4.27 ГБ [1 DVD-5]
Код:
Общее
Уникальный идентификатор                 : 193846624000376932729216312459062777963 (0x91D5807487103A29A9E4171BB531986B)
Полное имя                               : Monster.High.Freaky.Fusion.2014.BDRip.1080p.Deadmauvlad.mkv
Формат                                   : Matroska
Версия формата                           : Version 4 / Version 2
Размер файла                             : 4,27 Гбайт
Продолжительность                        : 1 ч. 13 м.
Общий поток                              : 8302 Кбит/сек
Дата кодирования                         : UTC 2014-10-09 07:32:05
Программа кодирования                    : mkvmerge v6.1.0 ('Old Devil') built on Mar  4 2013 09:10:42
Библиотека кодирования                   : libebml v1.3.0 + libmatroska v1.4.0
Видео
Идентификатор                            : 1
Формат                                   : AVC
Формат/Информация                        : Advanced Video Codec
Профиль формата                          : High@L4.1
Параметр CABAC формата                   : Да
Параметр ReFrames формата                : 4 кадра
Идентификатор кодека                     : V_MPEG4/ISO/AVC
Продолжительность                        : 1 ч. 13 м.
Битрейт                                  : 6992 Кбит/сек
Ширина                                   : 1920 пикселей
Высота                                   : 1080 пикселей
Соотношение сторон                       : 16:9
Режим частоты кадров                     : Постоянный
Частота кадров                           : 23,976 кадра/сек
Цветовое пространство                    : YUV
Субдискретизация насыщенности            : 4:2:0
Битовая глубина                          : 8 бит
Тип развёртки                            : Прогрессивная
Бит/(Пиксели*Кадры)                      : 0.141
Размер потока                            : 3,52 Гбайт (83%)
Заголовок                                : BDRip 1080 By Deadmauvlad
Библиотека кодирования                   : x264 core 142 r2479 dd79a61
Настройки программы                      : cabac=1 / ref=4 / deblock=1:0:0 / analyse=0x3:0x133 / me=umh / subme=7 / psy=1 / psy_rd=1.00:0.00 / mixed_ref=1 / me_range=16 / chroma_me=1 / trellis=1 / 8x8dct=1 / cqm=0 / deadzone=21,11 / fast_pskip=0 / chroma_qp_offset=-2 / threads=18 / lookahead_threads=3 / sliced_threads=0 / nr=0 / decimate=1 / interlaced=0 / bluray_compat=0 / constrained_intra=0 / bframes=3 / b_pyramid=2 / b_adapt=1 / b_bias=0 / direct=1 / weightb=1 / open_gop=0 / weightp=2 / keyint=250 / keyint_min=23 / scenecut=40 / intra_refresh=0 / rc_lookahead=40 / rc=2pass / mbtree=1 / bitrate=6992 / ratetol=1.0 / qcomp=0.60 / qpmin=0 / qpmax=69 / qpstep=4 / cplxblur=20.0 / qblur=0.5 / ip_ratio=1.40 / aq=1:1.00
Язык                                     : English
Default                                  : Да
Forced                                   : Нет
Аудио #1
Идентификатор                            : 2
Формат                                   : AC-3
Формат/Информация                        : Audio Coding 3
Расширение режима                        : CM (complete main)
Параметр Endianness формата              : Big
Идентификатор кодека                     : A_AC3
Продолжительность                        : 1 ч. 13 м.
Вид битрейта                             : Постоянный
Битрейт                                  : 640 Кбит/сек
Каналы                                   : 6 каналов
Расположение каналов                     : Front: L C R, Side: L R, LFE
Частота                                  : 48,0 КГц
Битовая глубина                          : 16 бит
Метод сжатия                             : С потерями
Размер потока                            : 337 Мбайт (8%)
Заголовок                                : Дубляж BLU-Ray See [Rus] AC3 640
Язык                                     : Russian
Default                                  : Да
Forced                                   : Нет
Аудио #2
Идентификатор                            : 3
Формат                                   : AC-3
Формат/Информация                        : Audio Coding 3
Расширение режима                        : CM (complete main)
Параметр Endianness формата              : Big
Идентификатор кодека                     : A_AC3
Продолжительность                        : 1 ч. 13 м.
Вид битрейта                             : Постоянный
Битрейт                                  : 640 Кбит/сек
Каналы                                   : 6 каналов
Расположение каналов                     : Front: L C R, Side: L R, LFE
Частота                                  : 48,0 КГц
Битовая глубина                          : 16 бит
Метод сжатия                             : С потерями
Размер потока                            : 337 Мбайт (8%)
Заголовок                                : Оригинал  AC3 640
Язык                                     : English
Default                                  : Нет
Forced                                   : Нет
Текст #1
Идентификатор                            : 4
Формат                                   : PGS
Режим смешивания                         : zlib
Идентификатор кодека                     : S_HDMV/PGS
Идентификатор кодека/Информация          : The same subtitle format used on BDs/HD-DVDs
Заголовок                                : Full
Язык                                     : English
Default                                  : Да
Forced                                   : Нет
Текст #2
Идентификатор                            : 5
Формат                                   : VobSub
Режим смешивания                         : zlib
Идентификатор кодека                     : S_VOBSUB
Идентификатор кодека/Информация          : The same subtitle format used on DVDs
Заголовок                                : SDH
Язык                                     : English
Default                                  : Нет
Forced                                   : Нет
Текст #3
Идентификатор                            : 6
Формат                                   : VobSub
Режим смешивания                         : zlib
Идентификатор кодека                     : S_VOBSUB
Идентификатор кодека/Информация          : The same subtitle format used on DVDs
Язык                                     : French
Default                                  : Нет
Forced                                   : Нет
Меню
00:00:00.000                             : en:00:00:00.000
00:05:31.957                             : en:00:05:31.957
00:11:54.005                             : en:00:11:54.005
00:17:59.495                             : en:00:17:59.495
00:25:46.670                             : en:00:25:46.670
00:33:06.151                             : en:00:33:06.151
00:40:07.363                             : en:00:40:07.363
00:45:30.853                             : en:00:45:30.853
00:50:50.005                             : en:00:50:50.005
00:56:56.163                             : en:00:56:56.163
01:03:23.049                             : en:01:03:23.049
01:12:29.637                             : en:01:12:29.637
 

...first pass...
x264 [info]: frame I:1624 Avg QP:11.18 size: 68060
x264 [info]: frame P:44981 Avg QP:13.93 size: 22021
x264 [info]: frame B:106156 Avg QP:15.70 size: 6699
...last pass...
x264 [info]: frame I:1624 Avg QP:12.25 size: 73913
x264 [info]: frame P:44981 Avg QP:14.55 size: 22756
x264 [info]: frame B:106156 Avg QP:16.50 size: 6767
TIME
------------------------------
Общее время кодирования: 48 hour 6 min 34 sec = 2.5 дня
Файл получился на: 3604.48 mb




   Похожие торренты   Торрент   Размер 
В этой теме нет новых непрочитанных сообщений. Школа монстров: Монстрические мутации / Monster High: Freaky Fusion (2014) BDRip от Deadmauvlad | D | Лицензия

1172 | 96

1.45 ГБ

В этой теме нет новых непрочитанных сообщений. Школа монстров: Монстрические мутации / Monster High: Freaky Fusion (2014) BDRip 720p

646 | 40

1.73 ГБ

В этой теме нет новых непрочитанных сообщений. Школа монстров: Страх! Камера! Мотор! / Monster High: Frights, Camera, Action! (2014) BDRip от Deadmauvlad | Лицензия

638 | 114

746.63 МБ

В этой теме нет новых непрочитанных сообщений. Школа монстров: Мотор! / Monster High: Fright On! (2011) BDRip | D | Лицензия

209 | 31

729.91 МБ

В этой теме нет новых непрочитанных сообщений. Школа монстров: Побег с побережья черепа / Monster High: Escape from Skull Shores (2012) BDRip-AVC от HELLYWOOD | Лицензия

565 | 31

1.46 ГБ

В этой теме нет новых непрочитанных сообщений. Школа монстров: Дилогия / Monster High: Dilogy (2011) HDRip | Лицензия

194 | 31

1.46 ГБ

В этой теме нет новых непрочитанных сообщений. Школа монстров: Дилогия / Monster High: Dilogy (2011-2012) DVD9 | Лицензия

88 | 11

5.85 ГБ




Вы не можете начинать темы
Вы не можете отвечать на сообщения
Вы не можете редактировать свои сообщения
Вы не можете удалять свои сообщения
Вы не можете добавлять вложения

Перейти:  
Для Мосгорсуда, Роскомнадзора и рекламодателей: mosgorsud-torrent[собачка]yandex.ru
 Вход
ppkBB3cker v.2 © 2008-2014 @ PPK
[ Time : 0.049s | 16 Queries | GZIP : Off ]

Торрент трекер RUTOR.IN, Не можете зайти на rutor.org? Какой новый адрес рутор? Какое зеркало рутор? Не работает rutor.org и зеркала? Тогда наш торрент специально для вас. Rutor.in неофициальное зеркало rutor. В случае если у Вас заблокирован rutor или вдруг Вы не можете на него зайти, то Вы без труда сможете скачать бесплатно и без рекламы последние новинки кино, игр, сериалов и прочего у нас, на Rutor.in. Не нужно использовать прокси, чтобы зайти на рутор, достаточно воспользоваться нашим ресурсом. Все новые фильмы, игры, сериалы, книги и музыка за 2013 и 2014 годы через торрент бесплатно. Скачивайте фильмы в хорошем качестве, игры для пк, xbox, playstation без регистрации. У нас вы найдете новые Зарубежные сериалы и Русские сериалы 2013, 2014, 2015 годов. Оставайтесь с нами, качайте любимые фильмы, игры, сериалы, книги и музыку.
cron