img image001 image001 image001 image001 image001 image001 image001 image001 image001 image001 image001 image001 image001 image001 image001

Planets Sun Sun Sun
Статистика раздачи
Автор: Nickolas3434 | Размер: 1.6 ГБ | Добавлен: 11 окт 2014
Раздают: 53    Качают: 20
Скачать торрент
Скачать торрент
Описание торрента

СообщениеДобавлено: 11 окт 2014 

Информация о фильме
Название: Аватар: Легенда о Корре (Книга 4 - Баланс.)
Оригинальное название: The Legend of Korra
Год выхода: 2014
Жанр: мультфильм, фэнтези, боевик, приключения, семейный
Режиссер: Хоаким Дос Сантос / Joaquim Dos Santos, Ки Хьюн Рю / Ki Hyun Ryu
В ролях: Джанет Вэрни, Ди Брэдли Бейкер, Дэвид Фаустино, П.Дж. Бирн, Дж.К. Симмонс, Джефф Беннетт, Сейшелл Гэбриел, Дарси Роуз Бернс, Стивен Блум, Логан Уэллс
Роли озвучивали: Тимиркан Сиюхов и Маргарита Щелкунова
О фильме: Мир вступает в новую эру! Гармоническое сближение вызвало сдвиг в энергетическом поле планеты, а Республиканский город спустя недели всё ещё не оправился после битвы Корры и УнаВаату. Весь город зарос и превратился в джунгли, которые новоприбывшие духи считают своим домом. Но не ждут ли наш город ещё какие-то перемены?
Продолжительность: 01 х ~00:22:00
Перевод: Любительский (двухголосый) [LE-Production]
Субтитры: отсутствуют
Файл
Формат: MKV
Качество: WEB-DL 720p
Видео: 1280 x 720 (16:9), 23.976 fps, AVC (x264), High@L3.1, 4192 kbps avg, 0.190 bit/pixel
Аудио #1: русский: 48 kHz, AC3 Dolby Digital, 3/2 (L,C,R,l,r) + LFE ch, ~384.00 kbps avg | LE-Production |
Аудио #2: русский: 48 kHz, AC3 Dolby Digital, 3/2 (L,C,R,l,r) + LFE ch, ~384.00 kbps avg | Оригинал |
Релиз от:
01 - После стольких лет
Общее
Полное имя : the.legend.of.korra.s04.720p.web-dl.dd5.1.le-productionthe.legend.of.korra.s04e01.after.all.these.years.720p.web-dl.dd5.1.le-production.mkv
Формат : Matroska
Размер файла : 816 Мбайт
Продолжительность : 22 м.
Общий поток : 4962 Кбит/сек
Дата кодирования : UTC 2014-10-04 06:23:00
Программа кодирования : mkvmerge v7.1.0 ('Good Love') 64bit built on Jul 27 2014 13:06:55
Библиотека кодирования : libebml v1.3.0 + libmatroska v1.4.1
Видео
Идентификатор : 1
Формат : AVC
Формат/Информация : Advanced Video Codec
Профиль формата : High@L3.1
Параметр CABAC формата : Да
Параметр ReFrames формата : 4 кадры
Идентификатор кодека : V_MPEG4/ISO/AVC
Продолжительность : 22 м.
Битрейт : 4192 Кбит/сек
Ширина : 1280 пикс.
Высота : 720 пикс.
Соотношение сторон : 16:9
Частота кадров : 23,976 кадр/сек
Цветовое пространство : YUV
Подвыборка цветности : 4:2:0
Битовая глубина : 8 бит
Тип развёртки : Прогрессивная
Бит/(Пиксели*Кадры) : 0.190
Размер потока : 673 Мбайт (83%)
Библиотека кодирования : x264 core 130 r2273 b3065e6
Настройки программы : cabac=1 / ref=1 / deblock=1:-1:-1 / analyse=0x3:0x3 / me=dia / subme=1 / psy=1 / psy_rd=1.00:0.10 / mixed_ref=0 / me_range=16 / chroma_me=1 / trellis=0 / 8x8dct=1 / cqm=0 / deadzone=21,11 / fast_pskip=1 / chroma_qp_offset=0 / threads=12 / lookahead_threads=2 / sliced_threads=0 / nr=0 / decimate=1 / interlaced=0 / bluray_compat=0 / constrained_intra=0 / bframes=3 / b_pyramid=2 / b_adapt=1 / b_bias=0 / direct=3 / weightb=1 / open_gop=0 / weightp=1 / keyint=250 / keyint_min=23 / scenecut=40 / intra_refresh=0 / rc=2pass / mbtree=0 / bitrate=4192 / ratetol=1.0 / qcomp=0.60 / qpmin=0 / qpmax=69 / qpstep=4 / cplxblur=20.0 / qblur=0.5 / ip_ratio=1.40 / pb_ratio=1.30 / aq=1:1.00
Язык : Russian
Аудио #1
Идентификатор : 2
Формат : AC-3
Формат/Информация : Audio Coding 3
Расширение режима : CM (complete main)
Идентификатор кодека : A_AC3
Продолжительность : 22 м.
Вид битрейта : Постоянный
Битрейт : 384 Кбит/сек
Канал(ы) : 6 канала(ов)
Расположение каналов : Front: L C R, Side: L R, LFE
Частота : 48,0 КГц
Битовая глубина : 16 бит
Метод сжатия : С потерями
Размер потока : 63,1 Мбайт (8%)
Заголовок : LE-Production (Тимиркан Сиюхов и Маргарита Щелкунова)
Язык : Russian
Аудио #2
Идентификатор : 3
Формат : AC-3
Формат/Информация : Audio Coding 3
Расширение режима : CM (complete main)
Идентификатор кодека : A_AC3
Продолжительность : 22 м.
Вид битрейта : Постоянный
Битрейт : 384 Кбит/сек
Канал(ы) : 6 канала(ов)
Расположение каналов : Front: L C R, Side: L R, LFE
Частота : 48,0 КГц
Битовая глубина : 16 бит
Метод сжатия : С потерями
Размер потока : 63,1 Мбайт (8%)
Язык : English





   Похожие торренты   Торрент   Размер 
В этой теме нет новых непрочитанных сообщений. Аватар: Легенда о Корре / The Legend of Korra [04x01 из 13 ] (2014) WEB-DL 720p | LE-Production

55 | 8

815.53 МБ

В этой теме нет новых непрочитанных сообщений. Аватар: Легенда о Корре / The Legend of Korra [04x01-09 из 13 ] (2014) WEB-DL 720p | LE-Production

59 | 99

7.13 ГБ

В этой теме нет новых непрочитанных сообщений. Аватар: Легенда о Корре / The Legend of Korra [04x01-08 из 13 ] (2014) WEB-DL 720p | LE-Production

41 | 25

6.33 ГБ

В этой теме нет новых непрочитанных сообщений. Аватар: Легенда о Корре / The Legend of Korra [04x01-10 из 13 ] (2014) WEB-DL 720p | LE-Production

52 | 38

7.91 ГБ

В этой теме нет новых непрочитанных сообщений. Аватар: Легенда о Корре / The Legend of Korra [04x01-11 из 13 ] (2014) WEB-DL 720p | LE-Production

40 | 57

8.68 ГБ

В этой теме нет новых непрочитанных сообщений. Аватар: Легенда о Корре / The Legend of Korra [04x01-09 из 13] (2014) WEB-DLRip | LE-Production

641 | 60

3.59 ГБ

В этой теме нет новых непрочитанных сообщений. Аватар: Легенда о Корре / The Legend of Korra [04x01 из 13 ] (2014) WEB-DLRip | LE-Production

80 | 20

818.46 МБ




Вы не можете начинать темы
Вы не можете отвечать на сообщения
Вы не можете редактировать свои сообщения
Вы не можете удалять свои сообщения
Вы не можете добавлять вложения

Перейти:  
Для Мосгорсуда, Роскомнадзора и рекламодателей: mosgorsud-torrent[собачка]yandex.ru
 Вход
ppkBB3cker v.2 © 2008-2014 @ PPK
[ Time : 0.032s | 16 Queries | GZIP : Off ]

cron