img image001 image001 image001 image001 image001 image001 image001 image001 image001 image001 image001 image001 image001 image001 image001

Planets Sun Sun Sun
Статистика раздачи
Автор: Nickolas3434 | Размер: 1.88 ГБ | Добавлен: 12 окт 2014
Раздают: 42    Качают: 17
Скачать торрент
Скачать торрент
Описание торрента

СообщениеДобавлено: 12 окт 2014 

Информация о фильме
Название: Аватар: Легенда о Корре (Книга 4 - Баланс.)
Оригинальное название: The Legend of Korra
Год выхода: 2014
Жанр: мультфильм, фэнтези, боевик, приключения, семейный
Режиссер: Хоаким Дос Сантос / Joaquim Dos Santos, Ки Хьюн Рю / Ki Hyun Ryu
В ролях: Джанет Вэрни, Ди Брэдли Бейкер, Дэвид Фаустино, П.Дж. Бирн, Дж.К. Симмонс, Джефф Беннетт, Сейшелл Гэбриел, Дарси Роуз Бернс, Стивен Блум, Логан Уэллс
Роли озвучивали: Тимиркан Сиюхов и Маргарита Щелкунова
О фильме: Мир вступает в новую эру! Гармоническое сближение вызвало сдвиг в энергетическом поле планеты, а Республиканский город спустя недели всё ещё не оправился после битвы Корры и УнаВаату. Весь город зарос и превратился в джунгли, которые новоприбывшие духи считают своим домом. Но не ждут ли наш город ещё какие-то перемены?
Продолжительность: 01 х ~00:22:00
Перевод: Любительский (двухголосый) [LE-Production]
Субтитры: отсутствуют
Файл
Формат: MKV
Качество: WEB-DL 1080p
Видео: 1920 x 1080 (16:9), 23.976 fps, AVC (x264), High@L4.0, 5243 kbps avg, 0.105 bit/pixel
Аудио #1: русский: 48 kHz, AC3 Dolby Digital, 3/2 (L,C,R,l,r) + LFE ch, ~384.00 kbps avg | LE-Production |
Аудио #2: русский: 48 kHz, AC3 Dolby Digital, 3/2 (L,C,R,l,r) + LFE ch, ~384.00 kbps avg | Оригинал |
Релиз от:
01 - После стольких лет
Общее
Полное имя : the.legend.of.korra.s04.1080p.web-dl.dd5.1.le-productionthe.legend.of.korra.s04e01.after.all.these.years.1080p.web-dl.dd5.1.le-production.mkv
Формат : Matroska
Размер файла : 988 Мбайт
Продолжительность : 22 м.
Общий поток : 6013 Кбит/сек
Дата кодирования : UTC 2014-10-04 06:27:48
Программа кодирования : mkvmerge v7.1.0 ('Good Love') 64bit built on Jul 27 2014 13:06:55
Библиотека кодирования : libebml v1.3.0 + libmatroska v1.4.1
Видео
Идентификатор : 1
Формат : AVC
Формат/Информация : Advanced Video Codec
Профиль формата : High@L4.0
Параметр CABAC формата : Да
Параметр ReFrames формата : 4 кадры
Идентификатор кодека : V_MPEG4/ISO/AVC
Продолжительность : 22 м.
Битрейт : 5243 Кбит/сек
Ширина : 1920 пикс.
Высота : 1080 пикс.
Соотношение сторон : 16:9
Частота кадров : 23,976 кадр/сек
Цветовое пространство : YUV
Подвыборка цветности : 4:2:0
Битовая глубина : 8 бит
Тип развёртки : Прогрессивная
Бит/(Пиксели*Кадры) : 0.105
Размер потока : 842 Мбайт (85%)
Библиотека кодирования : x264 core 130 r2273 b3065e6
Настройки программы : cabac=1 / ref=1 / deblock=1:-1:-1 / analyse=0x3:0x3 / me=dia / subme=1 / psy=1 / psy_rd=1.00:0.10 / mixed_ref=0 / me_range=16 / chroma_me=1 / trellis=0 / 8x8dct=1 / cqm=0 / deadzone=21,11 / fast_pskip=1 / chroma_qp_offset=0 / threads=12 / lookahead_threads=2 / sliced_threads=0 / nr=0 / decimate=1 / interlaced=0 / bluray_compat=0 / constrained_intra=0 / bframes=3 / b_pyramid=2 / b_adapt=1 / b_bias=0 / direct=3 / weightb=1 / open_gop=0 / weightp=1 / keyint=250 / keyint_min=23 / scenecut=40 / intra_refresh=0 / rc=2pass / mbtree=0 / bitrate=5243 / ratetol=1.0 / qcomp=0.60 / qpmin=0 / qpmax=69 / qpstep=4 / cplxblur=20.0 / qblur=0.5 / ip_ratio=1.40 / pb_ratio=1.30 / aq=1:1.00
Язык : Russian
Аудио #1
Идентификатор : 2
Формат : AC-3
Формат/Информация : Audio Coding 3
Расширение режима : CM (complete main)
Идентификатор кодека : A_AC3
Продолжительность : 22 м.
Вид битрейта : Постоянный
Битрейт : 384 Кбит/сек
Канал(ы) : 6 канала(ов)
Расположение каналов : Front: L C R, Side: L R, LFE
Частота : 48,0 КГц
Битовая глубина : 16 бит
Метод сжатия : С потерями
Размер потока : 63,1 Мбайт (6%)
Заголовок : LE-Production (Тимиркан Сиюхов и Маргарита Щелкунова)
Язык : Russian
Аудио #2
Идентификатор : 3
Формат : AC-3
Формат/Информация : Audio Coding 3
Расширение режима : CM (complete main)
Идентификатор кодека : A_AC3
Продолжительность : 22 м.
Вид битрейта : Постоянный
Битрейт : 384 Кбит/сек
Канал(ы) : 6 канала(ов)
Расположение каналов : Front: L C R, Side: L R, LFE
Частота : 48,0 КГц
Битовая глубина : 16 бит
Метод сжатия : С потерями
Размер потока : 63,1 Мбайт (6%)
Язык : English





   Похожие торренты   Торрент   Размер 
В этой теме нет новых непрочитанных сообщений. Аватар: Легенда о Корре / The Legend of Korra [04x01-11 из 13 ] (2014) WEB-DL 1080p | LE-Production

211 | 66

10.4 ГБ

В этой теме нет новых непрочитанных сообщений. Аватар: Легенда о Корре / The Legend of Korra [04x01 из 13 ] (2014) WEB-DL 1080p | LE-Production

20 | 8

988.26 МБ

В этой теме нет новых непрочитанных сообщений. Аватар: Легенда о Корре / The Legend of Korra [04x01-09 из 13 ] (2014) WEB-DL 1080p | LE-Production

36 | 33

8.54 ГБ

В этой теме нет новых непрочитанных сообщений. Аватар: Легенда о Корре / The Legend of Korra [04x01-10 из 13 ] (2014) WEB-DL 1080p | LE-Production

20 | 34

9.48 ГБ

В этой теме нет новых непрочитанных сообщений. Аватар: Легенда о Корре / The Legend of Korra [04x01-08 из 13 ] (2014) WEB-DL 1080p | LE-Production

54 | 40

7.56 ГБ

В этой теме нет новых непрочитанных сообщений. Аватар: Легенда о Корре / The Legend of Korra [04x01-08 из 13] (2014) WEB-DLRip | LE-Production

89 | 51

3.19 ГБ

В этой теме нет новых непрочитанных сообщений. Аватар: Легенда о Корре / The Legend of Korra [04x01 из 13 ] (2014) WEB-DLRip | LE-Production

40 | 5

408.25 МБ




Вы не можете начинать темы
Вы не можете отвечать на сообщения
Вы не можете редактировать свои сообщения
Вы не можете удалять свои сообщения
Вы не можете добавлять вложения

Перейти:  
Для Мосгорсуда, Роскомнадзора и рекламодателей: mosgorsud-torrent[собачка]yandex.ru
 Вход
ppkBB3cker v.2 © 2008-2014 @ PPK
[ Time : 0.041s | 15 Queries | GZIP : Off ]

Торрент трекер RUTOR.IN, Не можете зайти на rutor.org? Какой новый адрес рутор? Какое зеркало рутор? Не работает rutor.org и зеркала? Тогда наш торрент специально для вас. Rutor.in неофициальное зеркало rutor. В случае если у Вас заблокирован rutor или вдруг Вы не можете на него зайти, то Вы без труда сможете скачать бесплатно и без рекламы последние новинки кино, игр, сериалов и прочего у нас, на Rutor.in. Не нужно использовать прокси, чтобы зайти на рутор, достаточно воспользоваться нашим ресурсом. Все новые фильмы, игры, сериалы, книги и музыка за 2013 и 2014 годы через торрент бесплатно. Скачивайте фильмы в хорошем качестве, игры для пк, xbox, playstation без регистрации. У нас вы найдете новые Зарубежные сериалы и Русские сериалы 2013, 2014, 2015 годов. Оставайтесь с нами, качайте любимые фильмы, игры, сериалы, книги и музыку.