img image001 image001 image001 image001 image001 image001 image001 image001 image001 image001 image001 image001 image001 image001 image001

Planets Sun Sun Sun
Статистика раздачи
Автор: Nickolas3434 | Размер: 1.05 ГБ | Добавлен: 16 окт 2014
Раздают: 1874    Качают: 67
Скачать торрент
Скачать торрент
Описание торрента

СообщениеДобавлено: 16 окт 2014 



Год выпуска:2008
Страна:Великобритания
Жанр: мультфильм, комедия
Продолжительность: 3 мин серия
Серии: 40
Перевод: Не требуется


Режиссёр:Саймон Тофилд


Описание: Всем кошатникам посвящается. Культовый анимационный сериал про шкодливого и вечно голодного кота, который во всех подробностях демонстрирует самые темные стороны мурлыкающих питомцев.
Как показывает практика, чтобы сделать интересный развлекательный продукт не обязательно привлекать многомиллионные бюджеты. Британец Саймон Тофилд обошелся обычным Adobe Flash. Черпая вдохновение у своих котов, коих у креативного аниматора на момент запуска идеи было три, Саймон познакомил зрителей со хулиганистым, вечно голодным и очень хитрым представителем семейства кошачьих, семимильными шагами продвигающимся к вершине искусства манипулирования наивным хозяином.
В коротеньких черно-белых зарисовках нашли свое отражение все нюансы поведенческих шаблонов котиков, которые никогда не упустят шанса напакостить исподтишка. Безымянного кота совершенно не устраивает режим питания, определенный ему человеческой особью, с которой он вынужден делить личное пространство, и хитрый котяра постоянно находится в заботах о том, как донести эту мысль не понимающему намеков Саймону. Смотреть «Кот Саймона» понравится всем, кто любит тонкий юмор.


Качество: WEB-DL 1080p
Формат: MPEG-4
Видео кодек: AVC
Аудио кодек: AAC, AA3
Видео: MPEG4, H264, 1920x1080, 25fps, 2059 kb/s
Аудио #1 AAC, 48000Hz, stereo, 125kbps
Аудио #2 Dolby AC3, 48000Hz, stereo, 256kbps
Format : MPEG-4
Format profile : Base Media
Codec ID : isom
File size : 19.9 MiB
Duration : 1mn 38s
Overall bit rate : 1 699 Kbps
Writing application : Lavf55.33.100
Video
ID : 1
Format : AVC
Format/Info : Advanced Video Codec
Format profile : High@L4.0
Format settings, CABAC : Yes
Format settings, ReFrames : 3 frames
Codec ID : avc1
Codec ID/Info : Advanced Video Coding
Duration : 1mn 38s
Bit rate : 1 317 Kbps
Nominal bit rate : 5 120 Kbps
Width : 1 920 pixels
Height : 1 080 pixels
Display aspect ratio : 16:9
Frame rate mode : Constant
Frame rate : 25.000 fps
Color space : YUV
Chroma subsampling : 4:2:0
Bit depth : 8 bits
Scan type : Progressive
Bits/(Pixel*Frame) : 0.025
Stream size : 15.4 MiB (77%)
Writing library : x264 core 142
Encoding settings : cabac=1 / ref=4 / deblock=1:0:0 / analyse=0x3:0x133 / me=hex / subme=7 / psy=1 / psy_rd=1.00:0.00 / mixed_ref=1 / me_range=16 / chroma_me=1 / trellis=2 / 8x8dct=1 / cqm=0 / deadzone=21,11 / fast_pskip=1 / chroma_qp_offset=-2 / threads=4 / lookahead_threads=1 / sliced_threads=0 / nr=0 / decimate=1 / interlaced=0 / bluray_compat=0 / constrained_intra=0 / bframes=6 / b_pyramid=1 / b_adapt=2 / b_bias=0 / direct=3 / weightb=1 / open_gop=0 / weightp=2 / keyint=100 / keyint_min=51 / scenecut=0 / intra_refresh=0 / rc_lookahead=50 / rc=2pass / mbtree=1 / bitrate=5120 / ratetol=1.0 / qcomp=0.60 / qpmin=0 / qpmax=69 / qpstep=4 / cplxblur=20.0 / qblur=0.5 / vbv_maxrate=6656 / vbv_bufsize=7680 / nal_hrd=none / filler=0 / ip_ratio=1.40 / aq=1:1.00
Language : English
Tagged date : UTC 2014-09-30 12:43:54
Audio #1
ID : 2
Format : AAC
Format/Info : Advanced Audio Codec
Format profile : LC
Codec ID : 40
Duration : 1mn 38s
Duration_LastFrame : 43ms
Bit rate mode : Constant
Bit rate : 123 Kbps
Channel(s) : 2 channels
Channel positions : Front: L R
Sampling rate : 48.0 KHz
Compression mode : Lossy
Stream size : 1.44 MiB (7%)
Language : English
Tagged date : UTC 2014-09-30 12:43:54
Audio #2
ID : 3
Format : AC-3
Format/Info : Audio Coding 3
Mode extension : CM (complete main)
Format settings, Endianness : Big
Codec ID : ac-3
Duration : 1mn 38s
Bit rate mode : Constant
Bit rate : 256 Kbps
Channel(s) : 2 channels
Channel positions : Front: L R
Sampling rate : 48.0 KHz
Bit depth : 16 bits
Compression mode : Lossy
Stream size : 2.99 MiB (15%)
Language : English
Tagged date : UTC 2014-09-30 12:43:54



1 серия — Котобудильник
2 серия — Впусти меня
3 серия — Вместо обеда
4 серия — С меня хватит
5 серия — Мушиная охота
6 серия — Горячая точка
7 серия — Снежная битва
8 серия — Коробка
9 серия — Трудности перевода
10 серия — Перерыв на обед
11 серия — За забором
12 серия — Санта Кот
13 серия — Липкая лента
14 серия — Свободен
15 серия — Сокровища
16 серия — Кошки‐мышки
17 серия — Двойные неприятности
18 серия — Тихий час
19 серия — Дичь
20 серия — Полка
21 серия — Гадкий жабёнок
22 серия — За стеклом
23 серия — На старт, внимание…Ням!
24 серия — Весна пришла
25 серия — Апорт
26 серия — Раз орех, два орех
27 серия — Ловись, рыбка
28 серия — Покорми меня
29 серия — Зомбоящик
30 серия — Клумба
31 серия — Чемодан
32 серия — Свет мой, зеркальце
33 серия — Мохнатое чудовище
34 серия — Рождественские шалости, часть 1
35 серия — Рождественские шалости, часть 2
36 серия — Сражен наповал
37 серия — Время беситься
38 серия — Котофото
39 серия — Кипяточку‐
40 серия — Большая стирка





   Похожие торренты   Торрент   Размер 
В этой теме нет новых непрочитанных сообщений. Кот Саймона / Simon's Cat [01-20 из 20] (2008-2011) WEBRip

121 | 9

212.78 МБ

В этой теме нет новых непрочитанных сообщений. Кот Саймона / Simon's Cat [01x01-48] (2008) WEBRip

350 | 82

521.89 МБ

В этой теме нет новых непрочитанных сообщений. Кот Саймона / Simon's Cat [21-27] (2012) WEBRip

80 | 8

82.14 МБ

В этой теме нет новых непрочитанных сообщений. Кот Саймона / Simon's Cat [01-15] (2007-2011) WEBRip

7 | 1

164.13 МБ

В этой теме нет новых непрочитанных сообщений. Симон и дубы / Simon och ekarna / Simon and the oaks (2011) DVDRip | L1 от Kenum

0 | 1

1.66 ГБ

В этой теме нет новых непрочитанных сообщений. Симон и дубы / Simon och ekarna / Simon and the oaks (2011) HDRip | L1

0 | 1

1.46 ГБ

В этой теме нет новых непрочитанных сообщений. Саймон-волшебник. Заколдованный мир / Simon the Sorcerer 4 - Chaos Happens (2008) PC | Repack by MOP030B от Zlofenix

3 | 4

985.6 МБ




Вы не можете начинать темы
Вы не можете отвечать на сообщения
Вы не можете редактировать свои сообщения
Вы не можете удалять свои сообщения
Вы не можете добавлять вложения

Перейти:  
Для Мосгорсуда, Роскомнадзора и рекламодателей: mosgorsud-torrent[собачка]yandex.ru
 Вход
ppkBB3cker v.2 © 2008-2014 @ PPK
[ Time : 2.744s | 15 Queries | GZIP : Off ]

Торрент трекер RUTOR.IN, Не можете зайти на rutor.org? Какой новый адрес рутор? Какое зеркало рутор? Не работает rutor.org и зеркала? Тогда наш торрент специально для вас. Rutor.in неофициальное зеркало rutor. В случае если у Вас заблокирован rutor или вдруг Вы не можете на него зайти, то Вы без труда сможете скачать бесплатно и без рекламы последние новинки кино, игр, сериалов и прочего у нас, на Rutor.in. Не нужно использовать прокси, чтобы зайти на рутор, достаточно воспользоваться нашим ресурсом. Все новые фильмы, игры, сериалы, книги и музыка за 2013 и 2014 годы через торрент бесплатно. Скачивайте фильмы в хорошем качестве, игры для пк, xbox, playstation без регистрации. У нас вы найдете новые Зарубежные сериалы и Русские сериалы 2013, 2014, 2015 годов. Оставайтесь с нами, качайте любимые фильмы, игры, сериалы, книги и музыку.