img image001 image001 image001 image001 image001 image001 image001 image001 image001 image001 image001 image001 image001 image001 image001

Planets Sun Sun Sun
Статистика раздачи
Автор: Nickolas3434 | Размер: 1.22 ГБ | Добавлен: 18 окт 2014
Раздают: 750    Качают: 36
Скачать торрент
Скачать торрент
Описание торрента

СообщениеДобавлено: 18 окт 2014 

Информация о фильме
Название: 7-й гном
Оригинальное название: Der 7bte Zwerg
Год выпуска: 2014
Жанр: Мультфильм, детский, семейный, приключения, полнометражный
Выпущено: Германия, Zipfelmützen GmbH & Co. KG, Erfttal Film, Animationsfabrik
Режиссер: Борис Альинович
В ролях: Борис Альинович, Элвин Камерон, Нина Хаген, Норберт Хейстеркамп, Мирко Нончев, Ана Сани, Ральф Шмитц, Мартин Шнайдер, Отто Ваалкес, Густав-Петер Вёлер
О фильме: В замке Фантабулараса большой переполох: принцесса Роза празднует свой 18-й день рождения. Приняты самые строгие меры безопасности, ведь злобная Колдунья Делламорта, которая прокляла Розу на ее крестинах, не позволит проклятию раствориться в воздухе. Семеро гномов – Умник, Рыжик, Ворчун, Соня, Силач, Бодряк и Бобо – ничего не знают об этом, когда отправляются на праздник в замок, мечтая повеселиться… Бобо, самый маленький гном, случайно запускает тайный механизм в кольце Колдуньи, и принцесса вместе со всеми гостями замерзает. Гномы спасаются в самую последнюю секунду. Теперь, чтобы все исправить, им придется отправиться в опасное путешествие и найти возлюбленного принцессы, похищенного драконом злобной Делламорты.

Официальный сайт
Файл
Качество: DVDRip (AVC)
Видео: MPEG-4 AVC, 1625 Кбит/с, 720x552@1024x552
Аудио: AC3, 6 ch, 448 Кбит/с
Продолжительность: 01:23:59
Перевод: Дублированный
General
Unique ID : 197691732073651100656707244127410050257 (0x94BA0AEB7E47BED58736CF34E181D4D1)
Complete name : C:7.gnom.2014.D.DVDRip.AVC.ExKinoRay.mkv
Format : Matroska
Format version : Version 2
File size : 1.22 GiB
Duration : 1h 23mn
Overall bit rate : 2 075 Kbps
Movie name : 7 gnom 2014 from ExKinoRay
Encoded date : UTC 2014-10-16 22:16:38
Writing application : mkvmerge v4.9.1 ('Ich will') built on Jul 11 2011 23:53:15
Writing library : libebml v1.2.1 + libmatroska v1.1.1
Video
ID : 1
Format : AVC
Format/Info : Advanced Video Codec
Format profile : High@L4.1
Format settings, CABAC : Yes
Format settings, ReFrames : 9 frames
Codec ID : V_MPEG4/ISO/AVC
Duration : 1h 23mn
Bit rate : 1 625 Kbps
Width : 720 pixels
Height : 552 pixels
Display aspect ratio : 1.85:1
Frame rate mode : Constant
Frame rate : 25.000 fps
Color space : YUV
Chroma subsampling : 4:2:0
Bit depth : 8 bits
Scan type : Progressive
Bits/(Pixel*Frame) : 0.164
Stream size : 952 MiB (76%)
Title : Enigma
Writing library : x264 core 133 r2334 a3ac64b
Encoding settings : cabac=1 / ref=9 / deblock=1:-2:-2 / analyse=0x3:0x113 / me=umh / subme=10 / psy=1 / psy_rd=1.00:0.20 / mixed_ref=1 / me_range=32 / chroma_me=1 / trellis=2 / 8x8dct=1 / cqm=0 / deadzone=21,11 / fast_pskip=0 / chroma_qp_offset=-3 / threads=12 / lookahead_threads=2 / sliced_threads=0 / nr=0 / decimate=0 / interlaced=0 / bluray_compat=0 / constrained_intra=0 / bframes=9 / b_pyramid=2 / b_adapt=2 / b_bias=0 / direct=3 / weightb=1 / open_gop=0 / weightp=2 / keyint=250 / keyint_min=25 / scenecut=40 / intra_refresh=0 / rc=2pass / mbtree=0 / bitrate=1625 / ratetol=1.0 / qcomp=0.60 / qpmin=0 / qpmax=69 / qpstep=4 / cplxblur=20.0 / qblur=0.5 / ip_ratio=1.40 / pb_ratio=1.30 / aq=1:1.00
Language : English
Default : Yes
Forced : No
Audio
ID : 2
Format : AC-3
Format/Info : Audio Coding 3
Mode extension : CM (complete main)
Format settings, Endianness : Big
Codec ID : A_AC3
Duration : 1h 23mn
Bit rate mode : Constant
Bit rate : 448 Kbps
Channel(s) : 6 channels
Channel positions : Front: L C R, Side: L R, LFE
Sampling rate : 48.0 KHz
Bit depth : 16 bits
Compression mode : Lossy
Stream size : 269 MiB (22%)
Title : DUB
Language : Russian
Default : Yes
Forced : No
Menu
00:00:00.000 : :Chapter 01
00:09:01.920 : :Chapter 02
00:19:04.800 : :Chapter 03
00:28:31.680 : :Chapter 04
00:38:14.400 : :Chapter 05
00:48:10.560 : :Chapter 06
00:59:01.920 : :Chapter 07
01:10:57.600 : :Chapter 08




Релиз от:
Автор релиза:



   Похожие торренты   Торрент   Размер 
В этой теме нет новых непрочитанных сообщений. 7-ой гном / Der 7bte Zwerg (2014) BDRemux 1080p от ExKinoRay | D | Лицензия

22 | 7

18.05 ГБ

В этой теме нет новых непрочитанных сообщений. 7-ой гном / Der 7bte Zwerg (2014) DVDRip | Лицензия

1243 | 55

703.13 МБ

В этой теме нет новых непрочитанных сообщений. 7-ой гном / Der 7bte Zwerg (2014) DVDRip | Лицензия

7403 | 412

1.37 ГБ

В этой теме нет новых непрочитанных сообщений. 7-ой гном / Der 7bte Zwerg (2014) WEB-DL 1080p | Лицензия

928 | 67

5.29 ГБ

В этой теме нет новых непрочитанных сообщений. 7-ой гном / Der 7bte Zwerg (2014) WEB-DL 720p | Лицензия

526 | 64

3.51 ГБ

В этой теме нет новых непрочитанных сообщений. 7-ой гном / Der 7bte Zwerg (2014) DVD5 от New-Team | D | Лицензия

326 | 30

4.11 ГБ

В этой теме нет новых непрочитанных сообщений. 7-ой гном / Der 7bte Zwerg (2014) BDRip-AVC от HELLYWOOD | Лицензия

176 | 7

2.18 ГБ




Вы не можете начинать темы
Вы не можете отвечать на сообщения
Вы не можете редактировать свои сообщения
Вы не можете удалять свои сообщения
Вы не можете добавлять вложения

Перейти:  
Для Мосгорсуда, Роскомнадзора и рекламодателей: mosgorsud-torrent[собачка]yandex.ru
 Вход
ppkBB3cker v.2 © 2008-2014 @ PPK
[ Time : 0.080s | 15 Queries | GZIP : Off ]

Торрент трекер RUTOR.IN, Не можете зайти на rutor.org? Какой новый адрес рутор? Какое зеркало рутор? Не работает rutor.org и зеркала? Тогда наш торрент специально для вас. Rutor.in неофициальное зеркало rutor. В случае если у Вас заблокирован rutor или вдруг Вы не можете на него зайти, то Вы без труда сможете скачать бесплатно и без рекламы последние новинки кино, игр, сериалов и прочего у нас, на Rutor.in. Не нужно использовать прокси, чтобы зайти на рутор, достаточно воспользоваться нашим ресурсом. Все новые фильмы, игры, сериалы, книги и музыка за 2013 и 2014 годы через торрент бесплатно. Скачивайте фильмы в хорошем качестве, игры для пк, xbox, playstation без регистрации. У нас вы найдете новые Зарубежные сериалы и Русские сериалы 2013, 2014, 2015 годов. Оставайтесь с нами, качайте любимые фильмы, игры, сериалы, книги и музыку.