img image001 image001 image001 image001 image001 image001 image001 image001 image001 image001 image001 image001 image001 image001 image001

Planets Sun Sun Sun
Статистика раздачи
Автор: Nickolas3434 | Размер: 2.44 ГБ | Добавлен: 19 окт 2014
Раздают: 125    Качают: 5
Скачать торрент
Скачать торрент
Описание торрента

СообщениеДобавлено: 19 окт 2014 

Информация о фильме
Название: Как приручить дракона 2
Оригинальное название: How To Train Your Dragon 2
Год выпуска: 2014
Жанр: Мультфильм, фэнтези, комедия, приключения, семейный, полнометражный
Выпущено: США, DreamWorks Animation, Mad Hatter Entertainment
Режиссер: Дин ДеБлуа
В ролях: Джей Барушель, Джона Хилл, Кейт Бланшетт, Джерард Батлер, Джимон Хонсу, Кристофер Минц-Плассе, Кристен Уиг, Кит Харингтон, Америка Феррера, ТиДжей Миллер, Крэйг Фергюсон
О фильме: На острове Олух произошли некоторые изменения. Драконы для викингов стали лучшими хвостатыми товарищами и надежной опорой. Довольно популярны среди молодых викингов стали гонки на дракончиках и ребята с удовольствием соревнуются друг с дружкой. Пока Астрид, Плевака, Сморкалка и остальные забавляются, Иккинг облетает с Беззубиком окрестности, и занимается составлением карт новых неизведанных мест. Один из таких полетов направил наших друзей прямо к ледяной пещере, которая оказывается пристанищем сотен диких драконов, о существовании которых никто из викингов и не догадывался. С ледяной пещеры и начинается череда опасных приключений у Иккинга и Беззубика…

Файл
Качество: BDRip (AVC)
Видео: MPEG-4 AVC, 2080 Кбит/с, 1024x432
Аудио: Русский, украинский, английский (AС3, 6 ch, 448 Кбит/c)
Продолжительность: 01:41:55
Перевод: Дублированный (Лицензия)
Субтитры: Русские (форсированные и полные), английские, украинские
General
Unique ID : 199114576411033438946136743643511247612 (0x95CC128FD84B4659A7B90F68370FD2FC)
Complete name : C:How.To.Train.Your.Dragon.2014.D.BDRip.AVC.ExKinoRay.mkv
Format : Matroska
Format version : Version 2
File size : 2.44 GiB
Duration : 1h 41mn
Overall bit rate : 3 426 Kbps
Movie name : How.To.Train.Your.Dragon 2014 from ExKinoRay
Encoded date : UTC 2014-10-18 13:15:21
Writing application : mkvmerge v4.9.1 ('Ich will') built on Jul 11 2011 23:53:15
Writing library : libebml v1.2.1 + libmatroska v1.1.1
Video
ID : 1
Format : AVC
Format/Info : Advanced Video Codec
Format profile : High@L4.1
Format settings, CABAC : Yes
Format settings, ReFrames : 9 frames
Codec ID : V_MPEG4/ISO/AVC
Duration : 1h 41mn
Bit rate : 2 080 Kbps
Width : 1 024 pixels
Height : 432 pixels
Display aspect ratio : 2.40:1
Frame rate mode : Constant
Frame rate : 23.976 fps
Color space : YUV
Chroma subsampling : 4:2:0
Bit depth : 8 bits
Scan type : Progressive
Bits/(Pixel*Frame) : 0.196
Stream size : 1.43 GiB (59%)
Title : Enigma-Vladislav71
Writing library : x264 core 133 r2334 a3ac64b
Encoding settings : cabac=1 / ref=9 / deblock=1:-2:-2 / analyse=0x3:0x113 / me=umh / subme=10 / psy=1 / psy_rd=1.00:0.15 / mixed_ref=1 / me_range=32 / chroma_me=1 / trellis=2 / 8x8dct=1 / cqm=0 / deadzone=21,11 / fast_pskip=0 / chroma_qp_offset=-3 / threads=12 / lookahead_threads=2 / sliced_threads=0 / nr=0 / decimate=0 / interlaced=0 / bluray_compat=0 / constrained_intra=0 / bframes=9 / b_pyramid=2 / b_adapt=2 / b_bias=0 / direct=3 / weightb=1 / open_gop=0 / weightp=2 / keyint=240 / keyint_min=23 / scenecut=40 / intra_refresh=0 / rc=2pass / mbtree=0 / bitrate=2080 / ratetol=1.0 / qcomp=0.60 / qpmin=0 / qpmax=69 / qpstep=4 / cplxblur=20.0 / qblur=0.5 / ip_ratio=1.40 / pb_ratio=1.30 / aq=1:1.00
Language : English
Default : Yes
Forced : No
Audio #1
ID : 2
Format : AC-3
Format/Info : Audio Coding 3
Mode extension : CM (complete main)
Format settings, Endianness : Big
Codec ID : A_AC3
Duration : 1h 41mn
Bit rate mode : Constant
Bit rate : 448 Kbps
Channel(s) : 6 channels
Channel positions : Front: L C R, Side: L R, LFE
Sampling rate : 48.0 KHz
Bit depth : 16 bits
Compression mode : Lossy
Stream size : 327 MiB (13%)
Title : DUB
Language : Russian
Default : Yes
Forced : No
Audio #2
ID : 3
Format : AC-3
Format/Info : Audio Coding 3
Mode extension : CM (complete main)
Format settings, Endianness : Big
Codec ID : A_AC3
Duration : 1h 41mn
Bit rate mode : Constant
Bit rate : 448 Kbps
Channel(s) : 6 channels
Channel positions : Front: L C R, Side: L R, LFE
Sampling rate : 48.0 KHz
Bit depth : 16 bits
Compression mode : Lossy
Stream size : 327 MiB (13%)
Language : Ukrainian
Default : No
Forced : No
Audio #3
ID : 4
Format : AC-3
Format/Info : Audio Coding 3
Mode extension : CM (complete main)
Format settings, Endianness : Big
Codec ID : A_AC3
Duration : 1h 41mn
Bit rate mode : Constant
Bit rate : 448 Kbps
Channel(s) : 6 channels
Channel positions : Front: L C R, Side: L R, LFE
Sampling rate : 48.0 KHz
Bit depth : 16 bits
Compression mode : Lossy
Stream size : 327 MiB (13%)
Language : English
Default : No
Forced : No
Text #1
ID : 5
Format : UTF-8
Codec ID : S_TEXT/UTF8
Codec ID/Info : UTF-8 Plain Text
Title : Forced
Language : Russian
Default : Yes
Forced : No
Text #2
ID : 6
Format : UTF-8
Codec ID : S_TEXT/UTF8
Codec ID/Info : UTF-8 Plain Text
Title : Full
Language : Russian
Default : No
Forced : No
Text #3
ID : 7
Format : UTF-8
Codec ID : S_TEXT/UTF8
Codec ID/Info : UTF-8 Plain Text
Title : Full
Language : Ukrainian
Default : No
Forced : No
Text #4
ID : 8
Format : UTF-8
Codec ID : S_TEXT/UTF8
Codec ID/Info : UTF-8 Plain Text
Language : English
Default : No
Forced : No
Menu
00:00:00.000 : en:Chapter 01
00:03:27.999 : en:Chapter 02
00:05:20.695 : en:Chapter 03
00:07:46.007 : en:Chapter 04
00:10:16.032 : en:Chapter 05
00:13:16.337 : en:Chapter 06
00:16:59.059 : en:Chapter 07
00:20:01.700 : en:Chapter 08
00:23:43.255 : en:Chapter 09
00:27:14.466 : en:Chapter 10
00:29:21.468 : en:Chapter 11
00:33:41.936 : en:Chapter 12
00:37:05.473 : en:Chapter 13
00:39:06.969 : en:Chapter 14
00:40:59.165 : en:Chapter 15
00:45:03.992 : en:Chapter 16
00:47:16.625 : en:Chapter 17
00:51:51.525 : en:Chapter 18
00:54:35.730 : en:Chapter 19
00:56:15.997 : en:Chapter 20
01:00:33.171 : en:Chapter 21
01:04:28.781 : en:Chapter 22
01:06:34.949 : en:Chapter 23
01:09:44.138 : en:Chapter 24
01:14:02.146 : en:Chapter 25
01:18:35.127 : en:Chapter 26
01:21:07.153 : en:Chapter 27
01:22:55.053 : en:Chapter 28
01:24:30.065 : en:Chapter 29
01:28:04.654 : en:Chapter 30
01:31:03.499 : en:Chapter 31
01:32:21.994 : en:Chapter 32




Релиз от:
Авторы релиза:



   Похожие торренты   Торрент   Размер 
В этой теме нет новых непрочитанных сообщений. Как приручить дракона 2 / How to Train Your Dragon 2 (2014) BDRip 1080p от ExKinoRay | D | Лицензия

303 | 18

9.68 ГБ

В этой теме нет новых непрочитанных сообщений. Как приручить дракона: Дилогия / How to Train Your Dragon: Dilogy (2010-2014) BDRip от ExKinoRay | D, P2

719 | 64

5.04 ГБ

В этой теме нет новых непрочитанных сообщений. Как приручить дракона 2 / How to Train Your Dragon 2 (2014) BDRip от HQCLUB | Лицензия

663 | 94

2.18 ГБ

В этой теме нет новых непрочитанных сообщений. Как приручить дракона 2 / How to Train Your Dragon 2 (2014) BDRip от New-Team | Лицензия

250 | 26

742.82 МБ

В этой теме нет новых непрочитанных сообщений. Как приручить дракона 2 / How to Train Your Dragon 2 (2014) BDRip от New-Team | Лицензия

107 | 7

2.18 ГБ

В этой теме нет новых непрочитанных сообщений. Как приручить дракона 2 / How to Train Your Dragon 2 (2014) BDRip-AVC от HQCLUB | Лицензия

90 | 6

3.11 ГБ

В этой теме нет новых непрочитанных сообщений. Как приручить дракона 2 / How to Train Your Dragon 2 (2014) BDRip от New-Team | Лицензия

2847 | 146

1.45 ГБ




Вы не можете начинать темы
Вы не можете отвечать на сообщения
Вы не можете редактировать свои сообщения
Вы не можете удалять свои сообщения
Вы не можете добавлять вложения

Перейти:  
Для Мосгорсуда, Роскомнадзора и рекламодателей: mosgorsud-torrent[собачка]yandex.ru
 Вход
ppkBB3cker v.2 © 2008-2014 @ PPK
[ Time : 0.050s | 16 Queries | GZIP : Off ]

Торрент трекер RUTOR.IN, Не можете зайти на rutor.org? Какой новый адрес рутор? Какое зеркало рутор? Не работает rutor.org и зеркала? Тогда наш торрент специально для вас. Rutor.in неофициальное зеркало rutor. В случае если у Вас заблокирован rutor или вдруг Вы не можете на него зайти, то Вы без труда сможете скачать бесплатно и без рекламы последние новинки кино, игр, сериалов и прочего у нас, на Rutor.in. Не нужно использовать прокси, чтобы зайти на рутор, достаточно воспользоваться нашим ресурсом. Все новые фильмы, игры, сериалы, книги и музыка за 2013 и 2014 годы через торрент бесплатно. Скачивайте фильмы в хорошем качестве, игры для пк, xbox, playstation без регистрации. У нас вы найдете новые Зарубежные сериалы и Русские сериалы 2013, 2014, 2015 годов. Оставайтесь с нами, качайте любимые фильмы, игры, сериалы, книги и музыку.
cron