img image001 image001 image001 image001 image001 image001 image001 image001 image001 image001 image001 image001 image001 image001 image001

Planets Sun Sun Sun
Статистика раздачи
Автор: Nickolas3434 | Размер: 13.36 ГБ | Добавлен: 23 окт 2014
Раздают: 543    Качают: 23
Скачать торрент
Скачать торрент
Описание торрента

СообщениеДобавлено: 23 окт 2014 

Информация о фильме
Название: Как приручить дракона 2
Оригинальное название: How to Train Your Dragon 2
Год выхода: 2014
Жанр: мультфильм, фэнтези, комедия, приключения, семейный
Режиссер: Дин ДеБлуа / Dean DeBlois
В ролях: Джей Барушель, Кейт Бланшетт, Джерард Батлер, Крэйг Фергюсон, Америка Феррера, Джона Хилл, Кристофер Минц-Плассе, ТиДжей Миллер, Кристен Уиг, Джимон Хонсу
О фильме:
С момента примирения викингов и драконов прошло пять лет. Пока Астрид, Сморкала и остальные ребята проводят время, соревнуясь друг с другом в популярных на острове драконьих гонках, Иккинг и Беззубик путешествуют по небу, составляя карту неизвестных мест. Когда одно из их приключений приводит к открытию тайной ледяной пещеры, которая является домом для сотен ранее невиданных диких драконов и таинственного драконьего всадника, два друга оказываются в центре битвы за защиту мира.
Страна: США
Продолжительность: 01:41:55
Перевод: Профессиональный (полное дублирование)
Файл
Кодек: AVC
Качество: BDRip 1080p 60FPS
Видео: 1920х816, 16.1 Mbps, 59.940 fps
Звук:
Russian: 48 kHz, DTS, 3/2 (L,C,R,l,r) + LFE ch, ~768.00 kbps avg |Дубляж, Blu-ray EUR|
English: 48 kHz, DTS-ES, 3/2 (L,C,R,l,r) + LFE ch, ~1536.00 kbps avg
Субтитры: Русские, английские, румынские
Семпл
General
Unique ID : 233368242576254649232730379604181812075 (0xAF9116B16AA9DFBE86B15A02AEB2836B)
Complete name : J:60FPSHow to Train Your Dragon 2How to Train Your Dragon 2 [60FPS by ZHz].mkv
Format : Matroska
Format version : Version 2
File size : 13.4 GiB
Duration : 1h 41mn
Overall bit rate : 18.8 Mbps
Movie name : released by aldershot
Encoded date : UTC 2014-10-22 08:48:46
Writing application : mkvmerge v4.2.0 ('No Talking') сборка от Jul 28 2010 18:38:23
Writing library : libebml v1.0.0 + libmatroska v1.0.0
Video
ID : 1
Format : AVC
Format/Info : Advanced Video Codec
Format profile : High@L4.2
Format settings, CABAC : Yes
Format settings, ReFrames : 4 frames
Muxing mode : Header stripping
Codec ID : V_MPEG4/ISO/AVC
Duration : 1h 41mn
Bit rate : 16.1 Mbps
Width : 1 920 pixels
Height : 816 pixels
Display aspect ratio : 2.35:1
Frame rate mode : Constant
Frame rate : 59.880 fps
Original frame rate : 59.940 fps
Color space : YUV
Chroma subsampling : 4:2:0
Bit depth : 8 bits
Scan type : Progressive
Bits/(Pixel*Frame) : 0.172
Stream size : 11.5 GiB (86%)
Writing library : x264 core 130 r2273 b3065e6
Encoding settings : cabac=1 / ref=2 / deblock=1:0:0 / analyse=0x3:0x113 / me=hex / subme=4 / psy=1 / psy_rd=1.00:0.10 / mixed_ref=0 / me_range=16 / chroma_me=1 / trellis=1 / 8x8dct=1 / cqm=0 / deadzone=21,11 / fast_pskip=1 / chroma_qp_offset=-1 / threads=12 / lookahead_threads=3 / sliced_threads=0 / nr=0 / decimate=1 / interlaced=0 / bluray_compat=0 / constrained_intra=0 / bframes=3 / b_pyramid=2 / b_adapt=1 / b_bias=0 / direct=1 / weightb=1 / open_gop=0 / weightp=1 / keyint=250 / keyint_min=25 / scenecut=40 / intra_refresh=0 / rc=cqp / mbtree=0 / qp=17 / ip_ratio=1.40 / pb_ratio=1.30 / aq=0
Language : English
Default : Yes
Forced : No
Audio #1
ID : 2
Format : DTS
Format/Info : Digital Theater Systems
Mode : 16
Format settings, Endianness : Big
Muxing mode : Header stripping
Codec ID : A_DTS
Duration : 1h 41mn
Bit rate mode : Constant
Bit rate : 768 Kbps
Channel(s) : 6 channels
Channel positions : Front: L C R, Side: L R, LFE
Sampling rate : 48.0 KHz
Bit depth : 24 bits
Compression mode : Lossy
Delay relative to video : 11ms
Stream size : 560 MiB (4%)
Title : Дубляж, Blu-Ray EUR
Language : Russian
Default : Yes
Forced : No
Audio #2
ID : 3
Format : DTS
Format/Info : Digital Theater Systems
Format profile : ES
Mode : 16
Format settings, Endianness : Big
Muxing mode : Header stripping
Codec ID : A_DTS
Duration : 1h 41mn
Bit rate mode : Constant
Bit rate : 1 509 Kbps
Channel(s) : 6 channels
Channel positions : Front: L C R, Side: L R, LFE
Sampling rate : 48.0 KHz
Bit depth : 24 bits
Compression mode : Lossy
Delay relative to video : 11ms
Stream size : 1.07 GiB (8%)
Language : English
Default : No
Forced : No
Text #1
ID : 4
Format : UTF-8
Codec ID : S_TEXT/UTF8
Codec ID/Info : UTF-8 Plain Text
Title : Full
Language : Romanian
Default : No
Forced : No
Text #2
ID : 5
Format : UTF-8
Codec ID : S_TEXT/UTF8
Codec ID/Info : UTF-8 Plain Text
Title : Forced, Blu-Ray EUR
Language : Russian
Default : Yes
Forced : No
Text #3
ID : 6
Format : UTF-8
Codec ID : S_TEXT/UTF8
Codec ID/Info : UTF-8 Plain Text
Title : Full, Blu-Ray EUR
Language : Russian
Default : No
Forced : No
Text #4
ID : 7
Format : UTF-8
Codec ID : S_TEXT/UTF8
Codec ID/Info : UTF-8 Plain Text
Title : Full, Blu-Ray EUR
Language : English
Default : No
Forced : No
Text #5
ID : 8
Format : UTF-8
Codec ID : S_TEXT/UTF8
Codec ID/Info : UTF-8 Plain Text
Title : SDH
Language : English
Default : No
Forced : No
Menu
00:00:00.000 : en:00:00:00.000
00:03:27.999 : en:00:03:27.999
00:05:20.695 : en:00:05:20.695
00:07:46.007 : en:00:07:46.007
00:10:16.032 : en:00:10:16.032
00:13:16.337 : en:00:13:16.337
00:16:59.060 : en:00:16:59.060
00:20:01.700 : en:00:20:01.700
00:23:43.255 : en:00:23:43.255
00:27:14.466 : en:00:27:14.466
00:29:21.468 : en:00:29:21.468
00:33:41.937 : en:00:33:41.937
00:37:05.473 : en:00:37:05.473
00:39:06.970 : en:00:39:06.970
00:40:59.165 : en:00:40:59.165
00:45:03.993 : en:00:45:03.993
00:47:16.625 : en:00:47:16.625
00:51:51.525 : en:00:51:51.525
00:54:35.731 : en:00:54:35.731
00:56:15.998 : en:00:56:15.998
01:00:33.171 : en:01:00:33.171
01:04:28.782 : en:01:04:28.782
01:06:34.949 : en:01:06:34.949
01:09:44.138 : en:01:09:44.138
01:14:01.854 : en:01:14:01.854
01:18:35.127 : en:01:18:35.127
01:21:07.154 : en:01:21:07.154
01:22:55.053 : en:01:22:55.053
01:24:30.065 : en:01:24:30.065
01:28:04.654 : en:01:28:04.654
01:31:03.500 : en:01:31:03.500
01:32:21.995 : en:01:32:21.995


Релиз от:



   Похожие торренты   Торрент   Размер 
В этой теме нет новых непрочитанных сообщений. Как приручить дракона 2 / How to Train Your Dragon 2 (2014) BDRip 1080p от Neofilm | Лицензия

733 | 26

7.76 ГБ

В этой теме нет новых непрочитанных сообщений. Как приручить дракона 2 / How To Train Your Dragon 2 (2014) BDRip 1080p от MediaClub | Лицензия

532 | 41

10.33 ГБ

В этой теме нет новых непрочитанных сообщений. Как приручить дракона 2 / How to Train Your Dragon 2 (2014) BDRip 1080p от ExKinoRay | D | Лицензия

303 | 18

9.68 ГБ

В этой теме нет новых непрочитанных сообщений. Как приручить дракона 2 / How to Train Your Dragon 2 (2014) BDRip 1080p от Leonardo and Scarabey | Лицензия

1326 | 80

5.34 ГБ

В этой теме нет новых непрочитанных сообщений. Как приручить дракона 2 / How to Train Your Dragon 2 (2014) BDRip 1080p от Ash61 | 3D-Video | halfOU

1184 | 99

7.44 ГБ

В этой теме нет новых непрочитанных сообщений. Как приручить дракона 2 / How to Train Your Dragon 2 (2014) BDRip 1080p | 3D-Video | HSBS | Лицензия | 60 fps

458 | 33

14.89 ГБ

В этой теме нет новых непрочитанных сообщений. Как приручить дракона / How to Train Your Dragon (2010) BDRip 1080p

155 | 16

4.37 ГБ




Вы не можете начинать темы
Вы не можете отвечать на сообщения
Вы не можете редактировать свои сообщения
Вы не можете удалять свои сообщения
Вы не можете добавлять вложения

Перейти:  
Для Мосгорсуда, Роскомнадзора и рекламодателей: mosgorsud-torrent[собачка]yandex.ru
 Вход
ppkBB3cker v.2 © 2008-2014 @ PPK
[ Time : 21.673s | 18 Queries | GZIP : Off ]
CGP output time : 0.066s | 7 Queries | GZIP : Off

Торрент трекер RUTOR.IN, Не можете зайти на rutor.org? Какой новый адрес рутор? Какое зеркало рутор? Не работает rutor.org и зеркала? Тогда наш торрент специально для вас. Rutor.in неофициальное зеркало rutor. В случае если у Вас заблокирован rutor или вдруг Вы не можете на него зайти, то Вы без труда сможете скачать бесплатно и без рекламы последние новинки кино, игр, сериалов и прочего у нас, на Rutor.in. Не нужно использовать прокси, чтобы зайти на рутор, достаточно воспользоваться нашим ресурсом. Все новые фильмы, игры, сериалы, книги и музыка за 2013 и 2014 годы через торрент бесплатно. Скачивайте фильмы в хорошем качестве, игры для пк, xbox, playstation без регистрации. У нас вы найдете новые Зарубежные сериалы и Русские сериалы 2013, 2014, 2015 годов. Оставайтесь с нами, качайте любимые фильмы, игры, сериалы, книги и музыку.