img image001 image001 image001 image001 image001 image001 image001 image001 image001 image001 image001 image001 image001 image001 image001

Planets Sun Sun Sun
Статистика раздачи
Автор: Nickolas3434 | Размер: 890.33 МБ | Добавлен: 24 окт 2014
Раздают: 9    Качают: 2
Скачать торрент
Скачать торрент
Описание торрента

СообщениеДобавлено: 24 окт 2014 

«They came... They saw... They panicked...»



Страна: Бельгия, Люксембург, Франция / Beast Production, Beast Productions, Canal+ Horizons, Canal+ [fr], Centre National du Cinéma et de l'Audiovisuel de la Communauté française de Belgique, Fonds National de Soutien à la Production Audiovisuelle du Luxembourg, Gébéka Films, La Parti Productions, Le Tax Shelter du Gouvernement Fédéral de Belgique, Les Films du Grognon, Mélusine, Mélusine Productions, Made in PM, Made in Productions, Région Wallone, Radio Télévision Belge Francofone (RTBF), Vlaams Audiovisueel Fonds, Wallimage
Жанр: мультфильм, фэнтези, комедия, приключения, семейный
Год выпуска: 2009
Продолжительность: 01:16:52
Перевод: Субтитры
Cубтитры: русские, английские
Оригинальная аудиодорожка: английский
Режиссер: Стефани Обье / Stéphane Aubier, Венсан Патар / Vincent Patar
В ролях: Стефани Обье, Жанна Балибар, Николя Бюиссе, Вероника Дюмон, Брюс Эллисон, Кристина Грюлуа, Фридерик Жаннен, Були Ланнерс, Брайан Лукке,
Кристель Маи...
Описание: Приключения героев начинаются с благой идеи. Ковбой и Индеец решили подарить Лошади «вещь», сделанную своими руками. Идея оказалась не самой лучшей: нежданный подарок разрушил дом Лошади.

Качество: BDRip / BDRemux 1080p
Формат: AVI
Видео: 720x304 (2.35:1), 23.976 fps, XviD, ~1162 kbps avg, 0.221 bit/pix
Аудио: English: 48 kHz, AC3, 3/2 (L,C,R,l,r) + LFE ch, 448.00 kbps constant
Формат субтитров: SoftSub (srt)
Пояснения: Русские субтитры исходника поправлены на предмет орфографии и синтаксиса. Более серьезный битрейт выставить не представлялось возможным из-за низкого качества исходника.
Раздача от:
Общее
Полное имя : Panika.v.derevne.2009.S.BDRip_[New-Team]_by_keeper.avi
Формат : AVI
Формат/Информация : Audio Video Interleave
Размер файла : 890 Мбайт
Продолжительность : 1 ч. 16 м.
Общий поток : 1619 Кбит/сек
Программа кодирования : VirtualDubModRus 1.5.10.2 (build 2542/release)
Библиотека кодирования : VirtualDubMod build 2542/release
Видео
Идентификатор : 0
Формат : MPEG-4 Visual
Профиль формата : Advanced Simple@L5
Параметр BVOP формата : 1
Параметр QPel формата : Нет
Параметр GMC формата : Без точки перехода
Параметр матрицы формата : Выборочная
Идентификатор кодека : XVID
Идентификатор кодека/Подсказка : XviD
Продолжительность : 1 ч. 16 м.
Битрейт : 1162 Кбит/сек
Ширина : 720 пикселей
Высота : 304 пикселя
Соотношение сторон : 2,35:1
Частота кадров : 23,976 кадра/сек
Цветовое пространство : YUV
Субдискретизация насыщенности : 4:2:0
Битовая глубина : 8 бит
Тип развёртки : Прогрессивная
Метод сжатия : С потерями
Бит/(Пиксели*Кадры) : 0.221
Размер потока : 639 Мбайт (72%)
Библиотека кодирования : XviD 1.2.1 (UTC 2008-12-04)
Аудио
Идентификатор : 1
Формат : AC-3
Формат/Информация : Audio Coding 3
Расширение режима : CM (complete main)
Параметр Endianness формата : Big
Идентификатор кодека : 2000
Продолжительность : 1 ч. 16 м.
Вид битрейта : Постоянный
Битрейт : 448 Кбит/сек
Каналы : 6 каналов
Расположение каналов : Front: L C R, Side: L R, LFE
Частота : 48,0 КГц
Битовая глубина : 16 бит
Метод сжатия : С потерями
Размер потока : 246 Мбайт (28%)
Выравнивание : Разделение по промежуткам
Продолжительность промежутка : 42 мс. (1,00 видеокадр)
Время предзагрузки промежутка : 500 мс.





   Похожие торренты   Торрент   Размер 
В этой теме нет новых непрочитанных сообщений. Паника в деревне / Panique au village (2009) BDRip 720p от New-Team | субтитры

11 | 8

2.33 ГБ

В этой теме нет новых непрочитанных сообщений. Паника в деревне / Panique au village (2009) BDRemux 1080p от HDCLUB и New-Team | субтитры

3 | 3

8.09 ГБ

В этой теме нет новых непрочитанных сообщений. Паника в деревне / Panique au village (2009) BDRemux 1080p от HDCLUB и New-Team | субтитры

7 | 3

6.96 ГБ

В этой теме нет новых непрочитанных сообщений. Паника в деревне / Panique au village (2009) BDRip от rs.bandito | A

67 | 20

1.48 ГБ

В этой теме нет новых непрочитанных сообщений. Паника в деревне / Panique au village (2009) BDRip от rs.bandito | A

36 | 12

744.67 МБ

В этой теме нет новых непрочитанных сообщений. Таинственный лес / The Village (2004) HDRip от New-Team | Лицензия

34 | 7

746.5 МБ

В этой теме нет новых непрочитанных сообщений. Таинственный лес / The Village (2004) HDRip от New-Team | Лицензия

131 | 11

1.46 ГБ




Вы не можете начинать темы
Вы не можете отвечать на сообщения
Вы не можете редактировать свои сообщения
Вы не можете удалять свои сообщения
Вы не можете добавлять вложения

Перейти:  
Для Мосгорсуда, Роскомнадзора и рекламодателей: mosgorsud-torrent[собачка]yandex.ru
 Вход
ppkBB3cker v.2 © 2008-2014 @ PPK
[ Time : 0.030s | 16 Queries | GZIP : Off ]

Торрент трекер RUTOR.IN, Не можете зайти на rutor.org? Какой новый адрес рутор? Какое зеркало рутор? Не работает rutor.org и зеркала? Тогда наш торрент специально для вас. Rutor.in неофициальное зеркало rutor. В случае если у Вас заблокирован rutor или вдруг Вы не можете на него зайти, то Вы без труда сможете скачать бесплатно и без рекламы последние новинки кино, игр, сериалов и прочего у нас, на Rutor.in. Не нужно использовать прокси, чтобы зайти на рутор, достаточно воспользоваться нашим ресурсом. Все новые фильмы, игры, сериалы, книги и музыка за 2013 и 2014 годы через торрент бесплатно. Скачивайте фильмы в хорошем качестве, игры для пк, xbox, playstation без регистрации. У нас вы найдете новые Зарубежные сериалы и Русские сериалы 2013, 2014, 2015 годов. Оставайтесь с нами, качайте любимые фильмы, игры, сериалы, книги и музыку.
cron