img image001 image001 image001 image001 image001 image001 image001 image001 image001 image001 image001 image001 image001 image001 image001

Planets Sun Sun Sun
Статистика раздачи
Автор: Nickolas3434 | Размер: 2.33 ГБ | Добавлен: 24 окт 2014
Раздают: 11    Качают: 8
Скачать торрент
Скачать торрент
Описание торрента

СообщениеДобавлено: 24 окт 2014 

«They came... They saw... They panicked...»



Страна: Бельгия, Люксембург, Франция / Beast Production, Beast Productions, Canal+ Horizons, Canal+ [fr], Centre National du Cinéma et de l'Audiovisuel de la Communauté française de Belgique, Fonds National de Soutien à la Production Audiovisuelle du Luxembourg, Gébéka Films, La Parti Productions, Le Tax Shelter du Gouvernement Fédéral de Belgique, Les Films du Grognon, Mélusine, Mélusine Productions, Made in PM, Made in Productions, Région Wallone, Radio Télévision Belge Francofone (RTBF), Vlaams Audiovisueel Fonds, Wallimage
Жанр: мультфильм, фэнтези, комедия, приключения, семейный
Год выпуска: 2009
Продолжительность: 01:16:52
Перевод: Субтитры
Cубтитры: русские, английские
Оригинальная аудиодорожка: французский
Режиссер: Стефани Обье / Stéphane Aubier, Венсан Патар / Vincent Patar
В ролях: Стефани Обье, Жанна Балибар, Николя Бюиссе, Вероника Дюмон, Брюс Эллисон, Кристина Грюлуа, Фридерик Жаннен, Були Ланнерс, Брайан Лукке,
Кристель Маи...
Описание: Приключения героев начинаются с благой идеи. Ковбой и Индеец решили подарить Лошади «вещь», сделанную своими руками. Идея оказалась не самой лучшей: нежданный подарок разрушил дом Лошади.

Качество: BDRip 720p / BDRemux 1080p от HDCLUB
Формат: MKV
Видео: 1280x544 (2,35:1), MPEG-4 AVC Video 3697 kbps / 23,976 fps / High Profile 4.1
Аудио: French, 48 kHz/24-bit, AC3 5.1, 640.00 kbps |оригинал|
Формат субтитров: SoftSub (srt)
Дополнительно: Фильм разбит на главы, как на оригинальном Blu-ray диске. Русские субтитры поправлены в части орфографии и синтаксиса.
Раздача от:
Общее
Полное имя : Panika.v.derevne.2009.S.BDRip.720p_[New-Team]_by_keeper.mkv
Формат : Matroska
Версия формата : Version 4 / Version 2
Размер файла : 2,33 Гбайт
Продолжительность : 1 ч. 16 м.
Общий поток : 4334 Кбит/сек
Дата кодирования : UTC 2014-10-23 03:31:36
Программа кодирования : mkvmerge v7.2.0 ('On Every Street') 64bit built on Sep 13 2014 15:52:10
Библиотека кодирования : libebml v1.3.0 + libmatroska v1.4.1
DURATION : 01:09:58.186000000
NUMBER_OF_FRAMES : 859
NUMBER_OF_BYTES : 19964
_STATISTICS_WRITING_APP : mkvmerge v7.2.0 ('On Every Street') 64bit built on Sep 13 2014 15:52:10
_STATISTICS_WRITING_DATE_UTC : 2014-10-23 03:31:36
_STATISTICS_TAGS : BPS DURATION NUMBER_OF_FRAMES NUMBER_OF_BYTES
Видео
Идентификатор : 1
Формат : AVC
Формат/Информация : Advanced Video Codec
Профиль формата : High@L4.1
Параметр CABAC формата : Да
Параметр ReFrames формата : 6 кадров
Идентификатор кодека : V_MPEG4/ISO/AVC
Продолжительность : 1 ч. 16 м.
Битрейт : 3697 Кбит/сек
Ширина : 1280 пикселей
Высота : 544 пикселя
Соотношение сторон : 2,35:1
Режим частоты кадров : Постоянный
Частота кадров : 23,976 кадра/сек
Цветовое пространство : YUV
Субдискретизация насыщенности : 4:2:0
Битовая глубина : 8 бит
Тип развёртки : Прогрессивная
Бит/(Пиксели*Кадры) : 0.221
Размер потока : 1,94 Гбайт (83%)
Библиотека кодирования : x264 core 130 r2273 b3065e6
Настройки программы : cabac=1 / ref=6 / deblock=1:-3:-3 / analyse=0x3:0x113 / me=umh / subme=10 / psy=1 / psy_rd=1.00:0.05 / mixed_ref=1 / me_range=32 / chroma_me=1 / trellis=2 / 8x8dct=1 / cqm=0 / deadzone=21,11 / fast_pskip=0 / chroma_qp_offset=-3 / threads=9 / lookahead_threads=1 / sliced_threads=0 / nr=0 / decimate=0 / interlaced=0 / bluray_compat=0 / constrained_intra=0 / bframes=8 / b_pyramid=2 / b_adapt=2 / b_bias=0 / direct=3 / weightb=1 / open_gop=0 / weightp=2 / keyint=240 / keyint_min=24 / scenecut=40 / intra_refresh=0 / rc_lookahead=40 / rc=2pass / mbtree=1 / bitrate=3697 / ratetol=1.0 / qcomp=0.60 / qpmin=10 / qpmax=51 / qpstep=4 / cplxblur=20.0 / qblur=0.5 / vbv_maxrate=50000 / vbv_bufsize=50000 / nal_hrd=none / ip_ratio=1.40 / aq=1:0.80
Язык : French
Default : Да
Forced : Нет
DURATION : 01:16:52.608000000
NUMBER_OF_FRAMES : 110592
NUMBER_OF_BYTES : 2128646410
_STATISTICS_WRITING_APP : mkvmerge v7.2.0 ('On Every Street') 64bit built on Sep 13 2014 15:52:10
_STATISTICS_WRITING_DATE_UTC : 2014-10-23 03:31:36
_STATISTICS_TAGS : BPS DURATION NUMBER_OF_FRAMES NUMBER_OF_BYTES
Аудио
Идентификатор : 2
Формат : AC-3
Формат/Информация : Audio Coding 3
Расширение режима : CM (complete main)
Параметр Endianness формата : Big
Идентификатор кодека : A_AC3
Продолжительность : 1 ч. 16 м.
Вид битрейта : Постоянный
Битрейт : 640 Кбит/сек
Каналы : 6 каналов
Расположение каналов : Front: L C R, Side: L R, LFE
Частота : 48,0 КГц
Битовая глубина : 16 бит
Метод сжатия : С потерями
Размер потока : 352 Мбайт (15%)
Язык : Finnish
Default : Да
Forced : Нет
Текст #1
Идентификатор : 3
Формат : UTF-8
Идентификатор кодека : S_TEXT/UTF8
Идентификатор кодека/Информация : UTF-8 Plain Text
Язык : Russian
Default : Да
Forced : Нет
Текст #2
Идентификатор : 4
Формат : UTF-8
Идентификатор кодека : S_TEXT/UTF8
Идентификатор кодека/Информация : UTF-8 Plain Text
Язык : English
Default : Нет
Forced : Нет
Меню
00:00:00.000 : en:00:00:00.000
00:00:57.265 : en:00:00:57.265
00:03:26.705 : en:00:03:26.705
00:08:09.988 : en:00:08:09.988
00:11:13.297 : en:00:11:13.297
00:13:26.179 : en:00:13:26.179
00:20:21.220 : en:00:20:21.220
00:22:20.838 : en:00:22:20.838
00:27:28.145 : en:00:27:28.145
00:29:31.269 : en:00:29:31.269
00:33:17.494 : en:00:33:17.494
00:38:45.322 : en:00:38:45.322
00:45:41.237 : en:00:45:41.237
00:50:10.007 : en:00:50:10.007
00:56:51.907 : en:00:56:51.907
01:02:27.744 : en:01:02:27.744
01:04:54.891 : en:01:04:54.891
01:09:17.153 : en:01:09:17.153





   Похожие торренты   Торрент   Размер 
В этой теме нет новых непрочитанных сообщений. Паника в деревне / Panique au village (2009) BDRip от New-Team | субтитры

9 | 2

890.33 МБ

В этой теме нет новых непрочитанных сообщений. Паника в деревне / Panique au village (2009) BDRemux 1080p от HDCLUB и New-Team | субтитры

3 | 3

8.09 ГБ

В этой теме нет новых непрочитанных сообщений. Паника в деревне / Panique au village (2009) BDRemux 1080p от HDCLUB и New-Team | субтитры

7 | 3

6.96 ГБ

В этой теме нет новых непрочитанных сообщений. Паника в деревне / Panique au village (2009) BDRip от rs.bandito | A

67 | 20

1.48 ГБ

В этой теме нет новых непрочитанных сообщений. Паника в деревне / Panique au village (2009) BDRip от rs.bandito | A

36 | 12

744.67 МБ

В этой теме нет новых непрочитанных сообщений. Таинственный лес / The Village (2004) HDRip от New-Team | Лицензия

131 | 11

1.46 ГБ

В этой теме нет новых непрочитанных сообщений. Таинственный лес / The Village (2004) HDRip от New-Team | Лицензия

34 | 7

746.5 МБ




Вы не можете начинать темы
Вы не можете отвечать на сообщения
Вы не можете редактировать свои сообщения
Вы не можете удалять свои сообщения
Вы не можете добавлять вложения

Перейти:  
Для Мосгорсуда, Роскомнадзора и рекламодателей: mosgorsud-torrent[собачка]yandex.ru
 Вход
ppkBB3cker v.2 © 2008-2014 @ PPK
[ Time : 0.021s | 15 Queries | GZIP : On ]

Торрент трекер RUTOR.IN, Не можете зайти на rutor.org? Какой новый адрес рутор? Какое зеркало рутор? Не работает rutor.org и зеркала? Тогда наш торрент специально для вас. Rutor.in неофициальное зеркало rutor. В случае если у Вас заблокирован rutor или вдруг Вы не можете на него зайти, то Вы без труда сможете скачать бесплатно и без рекламы последние новинки кино, игр, сериалов и прочего у нас, на Rutor.in. Не нужно использовать прокси, чтобы зайти на рутор, достаточно воспользоваться нашим ресурсом. Все новые фильмы, игры, сериалы, книги и музыка за 2013 и 2014 годы через торрент бесплатно. Скачивайте фильмы в хорошем качестве, игры для пк, xbox, playstation без регистрации. У нас вы найдете новые Зарубежные сериалы и Русские сериалы 2013, 2014, 2015 годов. Оставайтесь с нами, качайте любимые фильмы, игры, сериалы, книги и музыку.