img image001 image001 image001 image001 image001 image001 image001 image001 image001 image001 image001 image001 image001 image001 image001

Planets Sun Sun Sun
Статистика раздачи
Автор: Nickolas3434 | Размер: 3.88 ГБ | Добавлен: 29 окт 2014
Раздают: 770    Качают: 57
Скачать торрент
Скачать торрент
Описание торрента

СообщениеДобавлено: 29 окт 2014 

Информация о фильме
Название: Чебурашка / Cheburashka
Оригинальное название: Оригинальное название (для иностранных фильмов)
Год выхода: 2014
Жанр: мультфильм, детский, семейный
Режиссер: Макото Накамура / Makoto Nakamura
В ролях: Лариса Брохман, Владимир Ферапонтов, Ольга Зверева, Дмитрий Филимонов, Александр Пожаров, Александр Груздев, Ольга Шорохова, Гарри Бардин, Владимир Орёл, Антон Морозов
О фильме:
Мультфильм из трех историй: «Чебурашка и цирк», «Чебурашка идет в зоопарк» и «Советы Шапокляк». Прологом служит история о появлении Чебурашки в ящике из-под апельсинов, его знакомстве с крокодилом Геной и обретении друзей.
«Чебурашка и цирк» — история о дружбе и мечте. Гена и Чебурашка помогают девочке Маше научиться ходить по канату и осуществляют ее заветное желание — выступать в цирке. В серии «Чебурашка идет в зоопарк» Гена заболел, и Чебурашка отправился вместо него «работать крокодилом» в зоопарке. Возникает веселая путаница. Заключительная история — «Советы Шапокляк». Герои приходят на помощь фокуснику, потерявшему внучку. А Шапокляк открывает бюро платных бесполезных советов.

Страна: Япония, Россия
Студия: Ffango Entertoyment
Продолжительность: 01:16:05
Перевод: Оригинал [Лицензия]
Файл
Кодек: MPEG2
Качество: DVD5 R5
Видео: PAL 16:9 (720x576(0.670)) MPEG Video, 25,000 кадр/сек, 6951 Кбит/сек
Звук: Russian (Dolby AC3, 2 ch) 192 Кбит/сек, 48,0 КГц
Субтитры: нет
Title: Cheburashka.2013.DVD5
Size: 3.88 Gb ( 4 064 290,00 KBytes ) - DVD-5
Enabled regions: 1, 2, 3, 4, 5, 6, 7, 8
VTS_01 :
Play Length: 00:00:16+01:15:49
Video: PAL 16:9 (720x576) VBR, Auto Letterboxed
Audio:
Russian (Dolby AC3, 2 ch)
* Menus Information *
VIDEO_TS Menu
Video:
NTSC 4:3 (720x480) VBR
Auto Pan&Scan, Auto Letterboxed
Russian Language Unit :
Title Menu
VTS_01 Menu
Video:
PAL 16:9 (720x576) VBR
Auto Letterboxed
Audio:
Not specified (Dolby AC3, 2 ch)
Russian Language Unit :
Root Menu
Chapter (PTT) Menu

Общее
Полное имя : F:Новинки 2014Cheburashka.2013.DVD5VIDEO_TSVTS_01_2.VOB
Формат : MPEG-PS
Размер файла : 1024 Мбайт
Продолжительность : 19 м.
Режим общего битрейта : Переменный
Общий поток : 7288 Кбит/сек
Видео
Идентификатор : 224 (0xE0)
Формат : MPEG Video
Версия формата : Version 2
Профиль формата : Main@Main
Параметр BVOP формата : Да
Параметр матрицы формата : Выборочная
Параметр GOP формата : M=3, N=15
Продолжительность : 19 м.
Вид битрейта : Переменный
Битрейт : 6951 Кбит/сек
Максимальный битрейт : 8500 Кбит/сек
Ширина : 720 пикселей
Высота : 576 пикселей
Соотношение сторон : 16:9
Частота кадров : 25,000 кадров/сек
Стандарт вещания : PAL
Цветовое пространство : YUV
Субдискретизация насыщенности : 4:2:0
Битовая глубина : 8 бит
Тип развёртки : Прогрессивная
Метод сжатия : С потерями
Бит/(Пиксели*Кадры) : 0.670
Временной код первого кадра : 00:20:43:17
Оригинал временного кода : Group of pictures header
Размер потока : 976 Мбайт (95%)
Аудио
Идентификатор : 189 (0xBD)-128 (0x80)
Формат : AC-3
Формат/Информация : Audio Coding 3
Расширение режима : CM (complete main)
Параметр Endianness формата : Big
Режим смешивания : DVD-Video
Продолжительность : 19 м.
Вид битрейта : Постоянный
Битрейт : 192 Кбит/сек
Каналы : 2 канала
Расположение каналов : Front: L R
Частота : 48,0 КГц
Битовая глубина : 16 бит
Метод сжатия : С потерями
Задержка видео : -368 мс.
Размер потока : 27,0 Мбайт (3%)





Релиз от:



   Похожие торренты   Торрент   Размер 
В этой теме нет новых непрочитанных сообщений. Чебурашка / Cheburashka (2014) WEB-DLRip от Twi7ter | лицензия

2652 | 113

1.45 ГБ

В этой теме нет новых непрочитанных сообщений. Чебурашка / Cheburashka (2014) WEBRip

2767 | 58

1.37 ГБ

В этой теме нет новых непрочитанных сообщений. Чебурашка / Cheburashka (2014) WEBRip-AVC

443 | 37

538.81 МБ

В этой теме нет новых непрочитанных сообщений. Чебурашка / Cheburashka (2014) WEBRip

1188 | 15

697.83 МБ

В этой теме нет новых непрочитанных сообщений. Чебурашка / Cheburashka (2014) WEBRip 720p | D

1491 | 34

1.99 ГБ

В этой теме нет новых непрочитанных сообщений. Чебурашка / Cheburashka (2013) WEB-DLRip 720p

1378 | 73

1.56 ГБ

В этой теме нет новых непрочитанных сообщений. Чебурашка арере? / Cheburashka Arere? (2010) HDTVRip 720p

1 | 6

1.13 ГБ




Вы не можете начинать темы
Вы не можете отвечать на сообщения
Вы не можете редактировать свои сообщения
Вы не можете удалять свои сообщения
Вы не можете добавлять вложения

Перейти:  
Для Мосгорсуда, Роскомнадзора и рекламодателей: mosgorsud-torrent[собачка]yandex.ru
 Вход
ppkBB3cker v.2 © 2008-2014 @ PPK
[ Time : 0.031s | 15 Queries | GZIP : Off ]

Торрент трекер RUTOR.IN, Не можете зайти на rutor.org? Какой новый адрес рутор? Какое зеркало рутор? Не работает rutor.org и зеркала? Тогда наш торрент специально для вас. Rutor.in неофициальное зеркало rutor. В случае если у Вас заблокирован rutor или вдруг Вы не можете на него зайти, то Вы без труда сможете скачать бесплатно и без рекламы последние новинки кино, игр, сериалов и прочего у нас, на Rutor.in. Не нужно использовать прокси, чтобы зайти на рутор, достаточно воспользоваться нашим ресурсом. Все новые фильмы, игры, сериалы, книги и музыка за 2013 и 2014 годы через торрент бесплатно. Скачивайте фильмы в хорошем качестве, игры для пк, xbox, playstation без регистрации. У нас вы найдете новые Зарубежные сериалы и Русские сериалы 2013, 2014, 2015 годов. Оставайтесь с нами, качайте любимые фильмы, игры, сериалы, книги и музыку.