img image001 image001 image001 image001 image001 image001 image001 image001 image001 image001 image001 image001 image001 image001 image001

Planets Sun Sun Sun
Статистика раздачи
Автор: Nickolas3434 | Размер: 2.48 ГБ | Добавлен: 12 ноя 2014
Раздают: 831    Качают: 64
Скачать торрент
Скачать торрент
Описание торрента

СообщениеДобавлено: 12 ноя 2014 

Информация о фильме
Название: Мой маленький пони: Девочки из Эквестрии – Радужный рок
Оригинальное название: My Little Pony: Equestria Girls - Rainbow Rocks
Год выхода: 2014
Жанр: мюзикл, комедия, семейный
Режиссер: Джэйсон Тиссен, Иши Руделл
В ролях: Тара Стронг, Эшли Болл, Андреа Либман, Табита Сен-Жермен, Кэти Уэслак, Ребекка Шойкет, Марика Хендрикс, Диана Каарина, Винсент Тонг, Кэтлин Барр
О фильме:
В школе Кантерлот Хай состоится музыкальное представление, в котором решают поучаствовать Рэйнбоу Дэш, Эпплджек, Пинки Пай, Рэрити и Флаттершай со своей новой группой — «The Rainbooms». Но когда на сцене появляется новая группа девочек с броским названием «The Dazzlings», всё очень быстро превращается из дружеского состязания в настоящую Битву Групп. В то время как между противниками нарастает напряжение, исправившаяся Сансет Шиммер узнаёт, что девочки из группы «The Dazzlings» вовсе не так просты, как могут показаться, и преследуют цели куда более зловещие, чем завоевание титула Лучшей Группы Кантерлот Хай. «The Rainbooms» обращаются за помощью к Принцессе Твайлайт, чтобы та вернулась в их мир и помогла сотворить музыкальное контр-заклинание, способное помочь им в битве, которая определит дальнейшую судьбу всей школы.

Страна: США, Канада
Студия: Hasbro Studios
Продолжительность: 01:13:20
Перевод: Дублированный; любительский одноголосый, закадровый
Файл
Кодек: H.264
Качество: BDRip 720p
Видео: MPEG-4 / AVC, 1280x720 (16:9), 23.976 fps ~ 2757 Kbps
Звук:
Аудио #1: AC3, 48 KHz 2 ch ~ 192 Kb/s (русский) [Дублированный]
Аудио #2: AC3, 48 KHz 6 ch ~ 384 Kb/s (русский) [Трина Дубовицкая]
Аудио #3: DTS, 48 KHz 6 ch ~ 1510 Kb/s (английский)
Субтитры:
Русские, английские (отдельно)
Общее
Уникальный идентификатор : 231051507389775345837872412987238313968 (0xADD2E6D45AD6C56190D21152585AEFF0)
Полное имя : Q:TorFMy Little Pony_Equestria Girls_Rainbow Rocks.2014.720pMy.Little.Pony.Equestria.Girls.Rainbow.Rocks.2014.720p.BluRay.x264.mkv
Формат : Matroska
Версия формата : Version 2
Размер файла : 2,48 Гбайт
Продолжительность : 1 ч. 13 м.
Общий поток : 4841 Кбит/сек
Дата кодирования : UTC 2014-11-04 21:52:20
Программа кодирования : mkvmerge v5.4.0 ('Piper') built on Mar 10 2012 13:34:39
Библиотека кодирования : libebml v1.2.3 + libmatroska v1.3.0
DURATION : 01:13:20.800000000
NUMBER_OF_FRAMES : 412575
NUMBER_OF_BYTES : 830100900
_STATISTICS_WRITING_APP : mkvmerge v7.3.0 ('Nouages') 64bit built on Oct 22 2014 18:53:34
_STATISTICS_WRITING_DATE_UTC : 2014-11-01 05:47:07
_STATISTICS_TAGS : BPS DURATION NUMBER_OF_FRAMES NUMBER_OF_BYTES
Видео
Идентификатор : 1
Формат : AVC
Формат/Информация : Advanced Video Codec
Профиль формата : High@L4.1
Параметр CABAC формата : Да
Параметр ReFrames формата : 5 кадров
Режим смешивания : Header stripping
Идентификатор кодека : V_MPEG4/ISO/AVC
Продолжительность : 1 ч. 13 м.
Битрейт : 2757 Кбит/сек
Ширина : 1280 пикселей
Высота : 720 пикселей
Соотношение сторон : 16:9
Частота кадров : 23,976 кадра/сек
Цветовое пространство : YUV
Субдискретизация насыщенности : 4:2:0
Битовая глубина : 8 бит
Тип развёртки : Прогрессивная
Бит/(Пиксели*Кадры) : 0.125
Размер потока : 1,36 Гбайт (55%)
Библиотека кодирования : x264 core 142 r2479 dd79a61
Настройки программы : cabac=1 / ref=5 / deblock=1:0:0 / analyse=0x3:0x113 / me=umh / subme=8 / psy=1 / psy_rd=1.00:0.00 / mixed_ref=1 / me_range=16 / chroma_me=1 / trellis=1 /
8x8dct=1 / cqm=0 / deadzone=21,11 / fast_pskip=1 / chroma_qp_offset=-2 / threads=12 / lookahead_threads=2 / sliced_threads=0 / nr=0 / decimate=1 / interlaced=0 / bluray_compat=0
/ constrained_intra=0 / bframes=3 / b_pyramid=2 / b_adapt=2 / b_bias=0 / direct=3 / weightb=1 / open_gop=0 / weightp=2 / keyint=240 / keyint_min=23 / scenecut=40 /
intra_refresh=0 / rc_lookahead=50 / rc=2pass / mbtree=1 / bitrate=2757 / ratetol=1.0 / qcomp=0.60 / qpmin=0 / qpmax=69 / qpstep=4 / cplxblur=20.0 / qblur=0.5 / ip_ratio=1.40 /
aq=1:1.00
Язык : English
Default : Да
Forced : Нет
DURATION : 01:13:20.772000000
NUMBER_OF_FRAMES : 105513
NUMBER_OF_BYTES : 1517214887
_STATISTICS_WRITING_APP : mkvmerge v7.3.0 ('Nouages') 64bit built on Oct 22 2014 18:53:34
_STATISTICS_WRITING_DATE_UTC : 2014-11-01 05:47:07
_STATISTICS_TAGS : BPS DURATION NUMBER_OF_FRAMES NUMBER_OF_BYTES
Аудио #1
Идентификатор : 2
Формат : AC-3
Формат/Информация : Audio Coding 3
Расширение режима : CM (complete main)
Режим смешивания : Header stripping
Идентификатор кодека : A_AC3
Продолжительность : 1 ч. 13 м.
Вид битрейта : Постоянный
Битрейт : 192 Кбит/сек
Каналы : 2 канала
Расположение каналов : Front: L R
Частота : 48,0 КГц
Битовая глубина : 16 бит
Метод сжатия : С потерями
Задержка видео : 500 мс.
Размер потока : 101 Мбайт (4%)
Заголовок : DUB
Язык : Russian
Default : Да
Forced : Нет
Аудио #2
Идентификатор : 3
Формат : AC-3
Формат/Информация : Audio Coding 3
Расширение режима : CM (complete main)
Режим смешивания : Header stripping
Идентификатор кодека : A_AC3
Продолжительность : 1 ч. 13 м.
Вид битрейта : Постоянный
Битрейт : 384 Кбит/сек
Каналы : 6 каналов
Расположение каналов : Front: L C R, Side: L R, LFE
Частота : 48,0 КГц
Битовая глубина : 16 бит
Метод сжатия : С потерями
Задержка видео : 500 мс.
Размер потока : 201 Мбайт (8%)
Заголовок : DUBOVITSCAYA
Язык : Russian
Default : Нет
Forced : Нет
Аудио #3
Идентификатор : 4
Формат : DTS
Формат/Информация : Digital Theater Systems
Режим смешивания : Header stripping
Идентификатор кодека : A_DTS
Продолжительность : 1 ч. 13 м.
Вид битрейта : Постоянный
Битрейт : 1510 Кбит/сек
Каналы : 6 каналов
Расположение каналов : Front: L C R, Side: L R, LFE
Частота : 48,0 КГц
Битовая глубина : 24 бит
Метод сжатия : С потерями
Размер потока : 792 Мбайт (31%)
Язык : English
Default : Нет
Forced : Нет




   Похожие торренты   Торрент   Размер 
В этой теме нет новых непрочитанных сообщений. Мой маленький пони: Девочки из Эквестрии – Радужный рок / My Little Pony: Equestria Girls - Rainbow Rocks (2014) WEB-DLRip | D; L1

1570 | 51

1.48 ГБ

В этой теме нет новых непрочитанных сообщений. Мой маленький пони: Девочки из Эквестрии – Радужный рок / My Little Pony: Equestria Girls - Rainbow Rocks (2014) BDRemux 1080p | D

208 | 12

8.91 ГБ

В этой теме нет новых непрочитанных сообщений. Мой маленький пони: Девочки из Эквестрии / My Little Pony: Equestria Girls (2013) BDRip-AVC от MediaClub

767 | 24

1.28 ГБ

В этой теме нет новых непрочитанных сообщений. Мой маленький пони: Девочки из Эквестрии / My Little Pony: Equestria Girls (2013) BDRip 1080p от MediaClub

279 | 58

2.99 ГБ

В этой теме нет новых непрочитанных сообщений. Мой маленький пони: Девочки из Эквестрии - Игры Дружбы / My Little Pony: Equestria Girls - Friendship Games (2015) HDTVRip 1080p | L2, L1

1772 | 102

2.96 ГБ

В этой теме нет новых непрочитанных сообщений. Мой маленький пони: Девочки из Эквестрии. Легенды вечнозеленого леса / My Little Pony: Equestria Girls - Legend of Everfree (2016) WEBRip | Sub

73 | 7

1.75 ГБ

В этой теме нет новых непрочитанных сообщений. Мой маленький пони: Девочки из Эквестрии - Легенды вечнозеленого леса / My Little Pony: Equestria Girls - Legend of Everfree (2016) WEB-DLRip 1080p | D

169 | 29

2.95 ГБ




Вы не можете начинать темы
Вы не можете отвечать на сообщения
Вы не можете редактировать свои сообщения
Вы не можете удалять свои сообщения
Вы не можете добавлять вложения

Перейти:  
Для Мосгорсуда, Роскомнадзора и рекламодателей: mosgorsud-torrent[собачка]yandex.ru
 Вход
ppkBB3cker v.2 © 2008-2014 @ PPK
[ Time : 0.183s | 14 Queries | GZIP : Off ]

Торрент трекер RUTOR.IN, Не можете зайти на rutor.org? Какой новый адрес рутор? Какое зеркало рутор? Не работает rutor.org и зеркала? Тогда наш торрент специально для вас. Rutor.in неофициальное зеркало rutor. В случае если у Вас заблокирован rutor или вдруг Вы не можете на него зайти, то Вы без труда сможете скачать бесплатно и без рекламы последние новинки кино, игр, сериалов и прочего у нас, на Rutor.in. Не нужно использовать прокси, чтобы зайти на рутор, достаточно воспользоваться нашим ресурсом. Все новые фильмы, игры, сериалы, книги и музыка за 2013 и 2014 годы через торрент бесплатно. Скачивайте фильмы в хорошем качестве, игры для пк, xbox, playstation без регистрации. У нас вы найдете новые Зарубежные сериалы и Русские сериалы 2013, 2014, 2015 годов. Оставайтесь с нами, качайте любимые фильмы, игры, сериалы, книги и музыку.