img image001 image001 image001 image001 image001 image001 image001 image001 image001 image001 image001 image001 image001 image001 image001

Planets Sun Sun Sun
Статистика раздачи
Автор: Nickolas3434 | Размер: 2.62 ГБ | Добавлен: 12 ноя 2014
Раздают: 150    Качают: 28
Скачать торрент
Скачать торрент
Описание торрента

СообщениеДобавлено: 12 ноя 2014 


Страна: Корея Южная / ICONIX Entertainment
Жанр: мультфильм, детский
Год выпуска: 2007...
Продолжительность: ~00:07:10 / серия
Перевод: Профессиональный (дублированный)
Cубтитры: нет
Оригинальная аудиодорожка: нет
Режиссер: Иль Хо Ким / Il Ho Kim
Описание: Где-то далеко-далеко, в месте, о котором люди даже не слышали, есть лес, весь покрытый снегом и льдом. В самой глубине этого леса прячется деревушка, в которой живут маленькие зверята. Солнце там светит теплее всего, а холодный ветер совсем не кусает за нос. Обитатели деревни — очень любознательный и шаловливый пингвиненок Пороро, добродушный белый медведь Поби, хитрый и любопытный рыжий лисенок Эдди, застенчивая и скромная малышка-бобренок Лупи и Кронг, маленький товарищ Пороро. У всех у них очень разные характеры и интересы. Иногда зверята ссорятся, но обычно им очень весело проводить время вместе. А главное — все они дорожат своей дружбой и всегда рады помочь друг другу.

Качество: DVDRip / DVD5 R5 от компании "Мистерия звука"
Формат: AVI
Видео: 704x528 (4:3), 25.000 fps, XviD ~ 1800 kbps avg, 0.194 bit/pixel
Аудио: 48 kHz, Dolby AC3, 2 ch, 192 kbps, русский
Раздача от:


01. Мы друзья! / We're Friends
02. Всё в порядке / It's All Right
03. Холодная рыбалка / Ice Fishing
04. Гляди веселей / Smile, Smile, Smile!
05. Что с моим лицом? / What Happen to My Face!
06. Апчхи, я простудился! / Achoo, I Got a Cold
07. Хочу летать! / Dream of Flying
09. В поисках сокровищ! / Treasure Hunting
08. Кто трогал моего снеговика! / Who Touched My Snowman
10. Кронг — озорник! / Crong the Troublemaker
11. Давайте играть вместе! / Let’s play together
12. Хочу луну / Can’t I have the moon?
13. Тайна Эдди / Eddy’s secret
14. Волшебная флейта / A Magic flute
15. Снежная картина / Snow canvas
16. Поиграем / Wanna have a round?
17. Рождество Кронга / Crong’s Christmas
18. Лупи, у тебя получится! / Loopy, you can do it!
19. Эдди и телескоп / Eddy and telescope
20. Головоломка / A jigsaw puzzle
21. Воздушный змей / Kite-flying
22. Спасти Лупи! / Save Loopy
23. Путешествие в поезде / Train adventure
24. Будь осторожен! / Be careful
25. Пороро и одуванчик / Pororo and Dandelion
26. Лекарство от икоты / Hiccup cure

Внимание! Раздача ведётся путём добавления новых серий; при каждом добавлении создаётся новый торрент-файл. Чтобы начать докачку новой серии, пользователям необходимо сделать следующее:
(1) остановить скачивание;
(2) удалить старый торрент-файл у себя из клиента (старые серии удалять не надо);
(3) скачать новый торрент-файл и запустить его у себя в клиенте вместо старого, при этом указать клиенту путь в старую папку куда и должно происходить скачивание новых серий.
Ваш клиент при этом должен произвести хеширование (проверку) старой папки (если он не производит проверку сам – помогите ему сделать это), и будет докачивать только те серии которых у вас ещё нет. Старые серии при этом не удаляются, а продолжают раздаваться!
Если вы уже удалили старые серии, то предотвратить повторную закачку старых серий можно, отжав галочку в соответствующих местах при запуске нового торрент-файла. Желательно старые серии не удалять как можно дольше, чтобы релизёр не столько продолжал раздавать старые серии, а смог сконцентрироваться на новых.

Общее
Формат : AVI
Формат/Информация : Audio Video Interleave
Размер файла : 103 Мбайт
Продолжительность : 7 м. 11 с.
Общий поток : 2000 Кбит/сек
Программа кодирования : VirtualDubModRus 1.5.10.2 (build 2542/release)
Библиотека кодирования : VirtualDubMod build 2542/release
Видео
Идентификатор : 0
Формат : MPEG-4 Visual
Профиль формата : Advanced Simple@L5
Параметр BVOP формата : 1
Параметр QPel формата : Нет
Параметр GMC формата : Без точки перехода
Параметр матрицы формата : Выборочная
Идентификатор кодека : XVID
Идентификатор кодека/Подсказка : XviD
Продолжительность : 7 м. 11 с.
Битрейт : 1798 Кбит/сек
Ширина : 704 пикселя
Высота : 528 пикселей
Соотношение сторон : 4:3
Частота кадров : 25,000 кадров/сек
Цветовое пространство : YUV
Субдискретизация насыщенности : 4:2:0
Битовая глубина : 8 бит
Тип развёртки : Прогрессивная
Метод сжатия : С потерями
Бит/(Пиксели*Кадры) : 0.194
Размер потока : 92,4 Мбайт (90%)
Библиотека кодирования : XviD 1.2.1 (UTC 2008-12-04)
Аудио
Идентификатор : 1
Формат : AC-3
Формат/Информация : Audio Coding 3
Расширение режима : CM (complete main)
Параметр Endianness формата : Big
Идентификатор кодека : 2000
Продолжительность : 7 м. 11 с.
Вид битрейта : Постоянный
Битрейт : 192 Кбит/сек
Каналы : 2 канала
Расположение каналов : Front: L R
Частота : 48,0 КГц
Битовая глубина : 16 бит
Метод сжатия : С потерями
Размер потока : 9,87 Мбайт (10%)
Выравнивание : Разделение по промежуткам
Продолжительность промежутка : 40 мс. (1,00 видеокадр)
Время предзагрузки промежутка : 500 мс.






   Похожие торренты   Торрент   Размер 
В этой теме нет новых непрочитанных сообщений. Пингвиненок Пороро [01x01-26 из 52] (2007...) DVDRip-AVC от New-Team | лицензия

323 | 32

2.62 ГБ

В этой теме нет новых непрочитанных сообщений. Пингвиненок Пороро / Pororo the Little Penguin [01x01-26 из 52] (2007...) 2xDVD5 от New-Team | D | Лицензия

67 | 15

7.88 ГБ

В этой теме нет новых непрочитанных сообщений. Пингвиненок Пороро / Pororo The Little Penguin [01x01-52 из 52] (2007) WEB-DLRip от -merci- | D

177 | 14

4.45 ГБ

В этой теме нет новых непрочитанных сообщений. Пингвиненок Пороро (1 сезон: 1-52 серии из 52) / Pororo the Little Penguin (Иль Хо Ким) [2007, мультфильм, детский, DVDRip-AVC] DUB

203 | 34

5.24 ГБ

В этой теме нет новых непрочитанных сообщений. Пингвиненок Пороро (1 сезон: 1-52 серии из 52) / Pororo the Little Penguin (Иль Хо Ким) [2007, мультфильм, детский, DVDRip] DUB

80 | 10

5.23 ГБ

В этой теме нет новых непрочитанных сообщений. Пингвиненок Пороро / Pororo the Little Penguin [01-52] (2007) SATRip | D

1040 | 170

4.43 ГБ

В этой теме нет новых непрочитанных сообщений. Пингвиненок Пороро / Pororo the Little Penguin [02x01-43] (2007) SATRip | D

169 | 43

3.6 ГБ




Вы не можете начинать темы
Вы не можете отвечать на сообщения
Вы не можете редактировать свои сообщения
Вы не можете удалять свои сообщения
Вы не можете добавлять вложения

Перейти:  
Для Мосгорсуда, Роскомнадзора и рекламодателей: mosgorsud-torrent[собачка]yandex.ru
 Вход
ppkBB3cker v.2 © 2008-2014 @ PPK
[ Time : 0.020s | 16 Queries | GZIP : On ]

Торрент трекер RUTOR.IN, Не можете зайти на rutor.org? Какой новый адрес рутор? Какое зеркало рутор? Не работает rutor.org и зеркала? Тогда наш торрент специально для вас. Rutor.in неофициальное зеркало rutor. В случае если у Вас заблокирован rutor или вдруг Вы не можете на него зайти, то Вы без труда сможете скачать бесплатно и без рекламы последние новинки кино, игр, сериалов и прочего у нас, на Rutor.in. Не нужно использовать прокси, чтобы зайти на рутор, достаточно воспользоваться нашим ресурсом. Все новые фильмы, игры, сериалы, книги и музыка за 2013 и 2014 годы через торрент бесплатно. Скачивайте фильмы в хорошем качестве, игры для пк, xbox, playstation без регистрации. У нас вы найдете новые Зарубежные сериалы и Русские сериалы 2013, 2014, 2015 годов. Оставайтесь с нами, качайте любимые фильмы, игры, сериалы, книги и музыку.