img image001 image001 image001 image001 image001 image001 image001 image001 image001 image001 image001 image001 image001 image001 image001

Planets Sun Sun Sun
Статистика раздачи
Автор: Nickolas3434 | Размер: 2.62 ГБ | Добавлен: 11 ноя 2014
Раздают: 323    Качают: 32
Скачать торрент
Скачать торрент
Описание торрента

СообщениеДобавлено: 11 ноя 2014 


Страна: Корея Южная / ICONIX Entertainment
Жанр: мультфильм, детский
Год выпуска: 2007...
Продолжительность: ~00:07:10 / серия
Перевод: Профессиональный (дублированный)
Cубтитры: нет
Оригинальная аудиодорожка: нет
Режиссер: Иль Хо Ким / Il Ho Kim
Описание: Где-то далеко-далеко, в месте, о котором люди даже не слышали, есть лес, весь покрытый снегом и льдом. В самой глубине этого леса прячется деревушка, в которой живут маленькие зверята. Солнце там светит теплее всего, а холодный ветер совсем не кусает за нос. Обитатели деревни — очень любознательный и шаловливый пингвиненок Пороро, добродушный белый медведь Поби, хитрый и любопытный рыжий лисенок Эдди, застенчивая и скромная малышка-бобренок Лупи и Кронг, маленький товарищ Пороро. У всех у них очень разные характеры и интересы. Иногда зверята ссорятся, но обычно им очень весело проводить время вместе. А главное — все они дорожат своей дружбой и всегда рады помочь друг другу.

Качество: DVDRip-AVC / DVD5 R5 от компании "Мистерия звука"
Формат: MKV
Видео: 704x568@760x568 (4:3), 25.000 fps, MPEG-4 AVC ~ 1809 kbps avg, 0.181 bit/pixel
Аудио: 48 kHz, Dolby AC3, 2 ch, 192 kbps, русский
Раздача от:


01. Мы друзья! / We're Friends
02. Всё в порядке / It's All Right
03. Холодная рыбалка / Ice Fishing
04. Гляди веселей / Smile, Smile, Smile!
05. Что с моим лицом? / What Happen to My Face!
06. Апчхи, я простудился! / Achoo, I Got a Cold
07. Хочу летать! / Dream of Flying
09. В поисках сокровищ! / Treasure Hunting
08. Кто трогал моего снеговика! / Who Touched My Snowman
10. Кронг — озорник! / Crong the Troublemaker
11. Давайте играть вместе! / Let’s play together
12. Хочу луну / Can’t I have the moon?
13. Тайна Эдди / Eddy’s secret
14. Волшебная флейта / A Magic flute
15. Снежная картина / Snow canvas
16. Поиграем / Wanna have a round?
17. Рождество Кронга / Crong’s Christmas
18. Лупи, у тебя получится! / Loopy, you can do it!
19. Эдди и телескоп / Eddy and telescope
20. Головоломка / A jigsaw puzzle
21. Воздушный змей / Kite-flying
22. Спасти Лупи! / Save Loopy
23. Путешествие в поезде / Train adventure
24. Будь осторожен! / Be careful
25. Пороро и одуванчик / Pororo and Dandelion
26. Лекарство от икоты / Hiccup cure

Внимание! Раздача ведётся путём добавления новых серий; при каждом добавлении создаётся новый торрент-файл. Чтобы начать докачку новой серии, пользователям необходимо сделать следующее:
(1) остановить скачивание;
(2) удалить старый торрент-файл у себя из клиента (старые серии удалять не надо);
(3) скачать новый торрент-файл и запустить его у себя в клиенте вместо старого, при этом указать клиенту путь в старую папку куда и должно происходить скачивание новых серий.
Ваш клиент при этом должен произвести хеширование (проверку) старой папки (если он не производит проверку сам – помогите ему сделать это), и будет докачивать только те серии которых у вас ещё нет. Старые серии при этом не удаляются, а продолжают раздаваться!
Если вы уже удалили старые серии, то предотвратить повторную закачку старых серий можно, отжав галочку в соответствующих местах при запуске нового торрент-файла. Желательно старые серии не удалять как можно дольше, чтобы релизёр не столько продолжал раздавать старые серии, а смог сконцентрироваться на новых.

General
Format : Matroska
Format version : Version 4 / Version 2
File size : 103 MiB
Duration : 7mn 11s
Overall bit rate : 2 005 Kbps
Encoded date : UTC 2014-11-09 07:03:36
Writing application : mkvmerge v7.2.0 ('On Every Street') 64bit built on Sep 13 2014 15:52:10
Writing library : libebml v1.3.0 + libmatroska v1.4.1
DURATION : 00:07:11.104000000
NUMBER_OF_FRAMES : 13472
NUMBER_OF_BYTES : 10346496
_STATISTICS_WRITING_APP : mkvmerge v7.2.0 ('On Every Street') 64bit built on Sep 13 2014 15:52:10
_STATISTICS_WRITING_DATE_UTC : 2014-11-09 07:03:36
_STATISTICS_TAGS : BPS DURATION NUMBER_OF_FRAMES NUMBER_OF_BYTES
Video
ID : 1
Format : AVC
Format/Info : Advanced Video Codec
Format profile : High@L4.1
Format settings, CABAC : Yes
Format settings, ReFrames : 8 frames
Codec ID : V_MPEG4/ISO/AVC
Duration : 7mn 11s
Bit rate : 1 809 Kbps
Width : 704 pixels
Height : 568 pixels
Display aspect ratio : 4:3
Frame rate mode : Constant
Frame rate : 25.000 fps
Color space : YUV
Chroma subsampling : 4:2:0
Bit depth : 8 bits
Scan type : Progressive
Bits/(Pixel*Frame) : 0.181
Stream size : 91.1 MiB (88%)
Writing library : x264 core 130 r2273 b3065e6
Encoding settings : cabac=1 / ref=8 / deblock=1:-2:-1 / analyse=0x3:0x113 / me=umh / subme=10 / psy=1 / psy_rd=1.00:0.05 / mixed_ref=1 / me_range=32 / chroma_me=1 / trellis=2 / 8x8dct=1 / cqm=0 / deadzone=21,11 / fast_pskip=0 / chroma_qp_offset=-3 / threads=9 / lookahead_threads=1 / sliced_threads=0 / nr=0 / decimate=0 / interlaced=0 / bluray_compat=0 / constrained_intra=0 / bframes=8 / b_pyramid=2 / b_adapt=2 / b_bias=0 / direct=3 / weightb=1 / open_gop=0 / weightp=2 / keyint=250 / keyint_min=25 / scenecut=40 / intra_refresh=0 / rc=2pass / mbtree=0 / bitrate=1809 / ratetol=1.0 / qcomp=0.60 / qpmin=0 / qpmax=69 / qpstep=4 / cplxblur=20.0 / qblur=0.5 / ip_ratio=1.40 / pb_ratio=1.30 / aq=1:1.00
Language : English
Default : Yes
Forced : No
DURATION : 00:07:11.120000000
NUMBER_OF_FRAMES : 10778
NUMBER_OF_BYTES : 97599096
_STATISTICS_WRITING_APP : mkvmerge v7.2.0 ('On Every Street') 64bit built on Sep 13 2014 15:52:10
_STATISTICS_WRITING_DATE_UTC : 2014-11-09 07:03:36
_STATISTICS_TAGS : BPS DURATION NUMBER_OF_FRAMES NUMBER_OF_BYTES
Audio
ID : 2
Format : AC-3
Format/Info : Audio Coding 3
Mode extension : CM (complete main)
Format settings, Endianness : Big
Codec ID : A_AC3
Duration : 7mn 11s
Bit rate mode : Constant
Bit rate : 192 Kbps
Channel(s) : 2 channels
Channel positions : Front: L R
Sampling rate : 48.0 KHz
Bit depth : 16 bits
Compression mode : Lossy
Stream size : 9.87 MiB (10%)
Language : Russian
Default : Yes
Forced : No





   Похожие торренты   Торрент   Размер 
В этой теме нет новых непрочитанных сообщений. Пингвиненок Пороро [01x01-26 из 52] (2007...) DVDRip от New-Team | лицензия

150 | 28

2.62 ГБ

В этой теме нет новых непрочитанных сообщений. Пингвиненок Пороро / Pororo the Little Penguin [01x01-26 из 52] (2007...) 2xDVD5 от New-Team | D | Лицензия

67 | 15

7.88 ГБ

В этой теме нет новых непрочитанных сообщений. Пингвиненок Пороро / Pororo the Little Penguin [01x01-52 из 52] (2007) 4xDVD5 от New-Team | D | Лицензия

4 | 0

15.75 ГБ

В этой теме нет новых непрочитанных сообщений. Пингвиненок Пороро / Pororo The Little Penguin [01x01-52 из 52] (2007) WEB-DLRip от -merci- | D

177 | 14

4.45 ГБ

В этой теме нет новых непрочитанных сообщений. Пингвиненок Пороро (1 сезон: 1-52 серии из 52) / Pororo the Little Penguin (Иль Хо Ким) [2007, мультфильм, детский, DVDRip] DUB

80 | 10

5.23 ГБ

В этой теме нет новых непрочитанных сообщений. Пингвиненок Пороро (1 сезон: 1-52 серии из 52) / Pororo the Little Penguin (Иль Хо Ким) [2007, мультфильм, детский, DVDRip-AVC] DUB

199 | 33

5.24 ГБ

В этой теме нет новых непрочитанных сообщений. Пингвиненок Пороро / Pororo the Little Penguin / Сезоны: 1 - 5 / Серии: 1 - 208 из 208 (Иль Хо Ким / Il Ho Kim) [2007..., Корея Южная, мультфильм, детский, DVDRip, SATRip, WEB-DLRip] DUB

8 | 12

22.09 ГБ




Вы не можете начинать темы
Вы не можете отвечать на сообщения
Вы не можете редактировать свои сообщения
Вы не можете удалять свои сообщения
Вы не можете добавлять вложения

Перейти:  
Для Мосгорсуда, Роскомнадзора и рекламодателей: mosgorsud-torrent[собачка]yandex.ru
 Вход
ppkBB3cker v.2 © 2008-2014 @ PPK
[ Time : 0.035s | 16 Queries | GZIP : Off ]

cron