img image001 image001 image001 image001 image001 image001 image001 image001 image001 image001 image001 image001 image001 image001 image001

Planets Sun Sun Sun
Статистика раздачи
Автор: Nickolas3434 | Размер: 4.14 ГБ | Добавлен: 12 ноя 2014
Раздают: 156    Качают: 24
Скачать торрент
Скачать торрент
Описание торрента

СообщениеДобавлено: 12 ноя 2014 

Название: Букашки. Приключение в Долине муравьев
Оригинальное название: Minuscule - La vallee des fourmis perdues
Год выхода: 2013
Жанр: Мультфильм, приключения, семейный
Режиссер: Хелен Жиро, Томас Забо
О фильме: Активные и любознательные черные муравьишки обнаруживают брошенную после пикника коробку с сахаром. Дружный отряд муравьишек вместе с Божьей коровкой решают переправить лакомство в муравейник. Но сладкая коробка уже успела нарушить спокойствие во всей долине, и свои планы на лакомство появились у других обитателей леса, в частности — у злобных красных муравьев-захватчиков. А, стало быть, на пути к заветной цели черным муравьишкам предстоит преодолеть массу опасностей и приключений.
Страна: Франция
Студия: Entre Chien et Loup, Futurikon, Futurikon Production II
Продолжительность: 01:28:27
Перевод: Не требуется
Кодек: MPEG-4 AVC
Качество: BDRip 720p
Видео: 1280x534, 5191 Кбит/с, 23.976 fps
Звук: DTS, 6 ch, 1509 Кбит/с
Семпл
http://screenshotcomparison.com/comparison/99568
В французском издании более полная картинка и при этом она не пересвечена.
Общее
Уникальный идентификатор : 221858187651730433508225996954106751663 (0xA6E8552BDDBEF0C5B1D41225D2EA6AAF)
Полное имя : H:Minuscule.2013.x264.BDRip.(720p).mkv
Формат : Matroska
Версия формата : Version 4 / Version 2
Размер файла : 4,14 Гбайт
Продолжительность : 1 ч. 28 м.
Общий поток : 6696 Кбит/сек
Название фильма : Minuscule - La vallée des fourmis perdues / 2013 / Rip by PowerRock / ExKinoRay
Дата кодирования : UTC 2014-11-10 14:42:11
Программа кодирования : mkvmerge v6.7.0 ('Back to the Ground') 32bit built on Jan 8 2014 15:03:17
Библиотека кодирования : libebml v1.3.0 + libmatroska v1.4.1
Видео
Идентификатор : 1
Формат : AVC
Формат/Информация : Advanced Video Codec
Профиль формата : High@L4.1
Параметр CABAC формата : Да
Параметр ReFrames формата : 8 кадров
Идентификатор кодека : V_MPEG4/ISO/AVC
Продолжительность : 1 ч. 28 м.
Битрейт : 5191 Кбит/сек
Ширина : 1280 пикселей
Высота : 534 пикселя
Соотношение сторон : 2,40:1
Режим частоты кадров : Постоянный
Частота кадров : 23,976 кадра/сек
Цветовое пространство : YUV
Субдискретизация насыщенности : 4:2:0
Битовая глубина : 8 бит
Тип развёртки : Прогрессивная
Бит/(Пиксели*Кадры) : 0.317
Размер потока : 3,12 Гбайт (75%)
Заголовок : Minuscule - La vallée des fourmis perdues / 2013
Библиотека кодирования : x264 core 130 r2273 b3065e6
Настройки программы : cabac=1 / ref=8 / deblock=1:-2:-2 / analyse=0x3:0x133 / me=umh / subme=10 / psy=1 / psy_rd=1.00:0.10 / mixed_ref=1 / me_range=32 / chroma_me=1 / trellis=2 / 8x8dct=1 / cqm=0 / deadzone=21,11 / fast_pskip=0 / chroma_qp_offset=-3 / threads=6 / lookahead_threads=1 / sliced_threads=0 / nr=0 / decimate=1 / interlaced=0 / bluray_compat=0 / constrained_intra=0 / bframes=9 / b_pyramid=2 / b_adapt=2 / b_bias=0 / direct=3 / weightb=1 / open_gop=0 / weightp=2 / keyint=250 / keyint_min=23 / scenecut=40 / intra_refresh=0 / rc_lookahead=50 / rc=2pass / mbtree=1 / bitrate=5191 / ratetol=1.0 / qcomp=0.60 / qpmin=10 / qpmax=51 / qpstep=4 / cplxblur=20.0 / qblur=0.5 / ip_ratio=1.40 / aq=1:1.00
Default : Да
Forced : Нет
Аудио
Идентификатор : 2
Формат : DTS
Формат/Информация : Digital Theater Systems
Режим : 16
Параметр Endianness формата : Big
Идентификатор кодека : A_DTS
Продолжительность : 1 ч. 28 м.
Вид битрейта : Постоянный
Битрейт : 1509 Кбит/сек
Каналы : 6 каналов
Расположение каналов : Front: L C R, Side: L R, LFE
Частота : 48,0 КГц
Битовая глубина : 24 бит
Метод сжатия : С потерями
Размер потока : 955 Мбайт (23%)
Язык : French
Default : Да
Forced : Нет
Меню
00:00:00.000 : :Chapter 01
00:02:44.080 : :Chapter 02
00:19:44.016 : :Chapter 03
00:34:45.041 : :Chapter 04
00:42:08.567 : :Chapter 05
00:58:45.230 : :Chapter 06
01:13:24.691 : :Chapter 07
01:19:13.498 : :Chapter 08
01:22:50.382 : :Chapter 09
01:28:27.260 : :Chapter 10




Релиз от:



   Похожие торренты   Торрент   Размер 
В этой теме нет новых непрочитанных сообщений. Букашки. Приключение в Долине муравьев / Minuscule - La vallee des fourmis perdues (2013) BDRip 720p от ExKinoRay | FRE Transfer

515 | 15

2.75 ГБ

В этой теме нет новых непрочитанных сообщений. Букашки. Приключение в Долине муравьев / Minuscule - La vallée des fourmis perdues (2013) WEB-DLRip-AVC от EXKinoRay

79 | 17

1.01 ГБ

В этой теме нет новых непрочитанных сообщений. Букашки. Приключение в Долине муравьев / Minuscule - La vallée des fourmis perdues (2013) BDRip 720p от HELLYWOOD

747 | 56

2.91 ГБ

В этой теме нет новых непрочитанных сообщений. Букашки. Приключение в Долине муравьев / Minuscule - La vallée des fourmis perdues (2013) WEB-DL 720p

948 | 78

1.15 ГБ

В этой теме нет новых непрочитанных сообщений. Букашки. Приключение в Долине муравьев / Minuscule - La vallée des fourmis perdues (2013) BDRip-AVC

1231 | 107

1.46 ГБ

В этой теме нет новых непрочитанных сообщений. Букашки. Приключение в Долине муравьев / Minuscule - La vallée des fourmis perdues (2013) BDRip-AVC от HELLYWOOD

524 | 34

1.46 ГБ

В этой теме нет новых непрочитанных сообщений. Букашки. Приключение в Долине муравьев / Minuscule - Minuscule - La vallee des fourmis perdues BDRip 1080p от R.G. HD-Films | 3D | 120 fps

118 | 21

15.15 ГБ




Вы не можете начинать темы
Вы не можете отвечать на сообщения
Вы не можете редактировать свои сообщения
Вы не можете удалять свои сообщения
Вы не можете добавлять вложения

Перейти:  
Для Мосгорсуда, Роскомнадзора и рекламодателей: mosgorsud-torrent[собачка]yandex.ru
 Вход
ppkBB3cker v.2 © 2008-2014 @ PPK
[ Time : 0.030s | 15 Queries | GZIP : Off ]

Торрент трекер RUTOR.IN, Не можете зайти на rutor.org? Какой новый адрес рутор? Какое зеркало рутор? Не работает rutor.org и зеркала? Тогда наш торрент специально для вас. Rutor.in неофициальное зеркало rutor. В случае если у Вас заблокирован rutor или вдруг Вы не можете на него зайти, то Вы без труда сможете скачать бесплатно и без рекламы последние новинки кино, игр, сериалов и прочего у нас, на Rutor.in. Не нужно использовать прокси, чтобы зайти на рутор, достаточно воспользоваться нашим ресурсом. Все новые фильмы, игры, сериалы, книги и музыка за 2013 и 2014 годы через торрент бесплатно. Скачивайте фильмы в хорошем качестве, игры для пк, xbox, playstation без регистрации. У нас вы найдете новые Зарубежные сериалы и Русские сериалы 2013, 2014, 2015 годов. Оставайтесь с нами, качайте любимые фильмы, игры, сериалы, книги и музыку.