img image001 image001 image001 image001 image001 image001 image001 image001 image001 image001 image001 image001 image001 image001 image001

Planets Sun Sun Sun
Статистика раздачи
Автор: Nickolas3434 | Размер: 7.62 ГБ | Добавлен: 14 ноя 2014
Раздают: 6    Качают: 5
Скачать торрент
Скачать торрент
Описание торрента

СообщениеДобавлено: 14 ноя 2014 

Информация о фильме
Название: Хай Хай Паффи АмиЮми
Оригинальное название: Hi Hi Puffy AmiYumi
Год выхода: 2004-2006
Жанр: комедия
Режиссер: Сэм Реджистер / Sam Register
В ролях:
Роли озвучивали: Эми Онуки, Юми Йошимура, Грэй ДеЛисл, Дженис Кавэй, Кион Янг, Нэйтан Карлсон, Кори Бертон, Роб Полсен, Сэнди Фокс, Кэти Ли
Роли дублировали: Жанна Никонова, Ольга Голованова, Михаил Тихонов
О фильме:
Hi Hi Puffy AmiYumi - мультсериал японско-американского производства, сделанный компанией Renegade Animation для канала Cartoon Network. Создателем сериала и одновременно его исполнительным продюсером является Сэм Реджистер. По его словам, целевая аудитория мультфильма - мальчики и девочки от 6 до 11 лет, но «Hi Hi Puffy AmiYumi» имеет поклонников и среди фанатов реальных Ами Онуки и Юми Ёсимуры, составляющих J-pop-дуэт PUFFY (в Америке известный как Puffy AmiYumi). Сам Реджистер — тоже фанат этой музыкальной группы, и решил создать мультфильм, чтобы о ней узнали и в других частях мира. Мультсериал рассказывает о приключениях анимированных Ами и Юми, которые были очень популярны в Японии со времени своего дебюта, состоявшегося в 1996 году.
01. Дисгармония (Dis-Harmony)
02. Собрать Все Пять (Collect All 5!)
03. Ниндзя-Неудачник (Ninjacompoop)
04. Пожиратели Таланта (Talent Suckers)
05. Оле! (Ole!)
06. Мини-Паффи (Mini-Puffs)
07. Ami's Secret
08. Много Бед от Конфет (Taffy Trouble)
09. Ами Оторвалась По Полной (Ami Goes Bad)
10. Оторвемся в Танце (Dance A-Go-Go)
11. Ментальный Металл (Metal Mental)
12. Робопоп (Robo-Pop)
13. Разборка (Showdown)
14. Ваша Карта Бита (In The Cards)
15. Тим Тин (Team Teen)
16. Опера Юми (Opera Yumi)
17. Спасти Ферму (Save The Farm)
18. Друг По Переписке (Pen Pal)
19. Атака Сопляка (Brat Attack)
20. Крутые Серферы (Surf's Up)
21. Аллергия (Allergic)
22. Космические Пришельцы (Spaced Out)
23. Юми Спасает Каза (Yumi Saves Kaz)
24. Рок и Голод (Rock N Roe)
25. Зацените! Хмуритоз! (Scowlitis)
26. Карта Сокровищ (Treasure Map)
27. Каз Против Кошечек (Kaz vs. Katz)
28. Плохой Менеджер (Bad Manager)
29. Восхитительный Каз-Ам (The Amazing Kaz-Am)
30. Паффи-Объедение (Puffylicious)
31. Свет, Камера, Опасность! (Lights, Camera, Danger)
32. Проклятые (Cursed)
33. Подлая Машина (Mean Machine)
34. Небезопасный Дом (Home Insecurity)
35. Неприглашенные (Uninvited)
36. Вылазка на Природу (Camping Caper)
37. Тюремный Рок (Cell Block Rock)
38. Лыжная Болезнь (Ski Sick)
39. Цепкие Когти (Claw and Order)
40. Зависть к Дженис (Janice Jealous)
41. Домо (Domo)
42. Юми Играет Соло (Yumi Goes Solo)
43. Кошачья Вражда (Cat Feud)
44. Беги, Киска, Беги! (Run, Cat, Run)
45. Автошкола (Driving School)
46. Рекордсменки (Record Breakers)
47. Тайные Способности (Secret Origin)
48. Легенды Мой-Пирога (Legend of Mei Pie)
49. Под Капотом (Under the Hood)
50. Паффи до Нашей Эры (Puffy B.C.)
51. Дупли-Коты (Dupli-Cats)
52. Безумие с Мангой (Manga Madness)
53. Ленточный Червячок (Junior Tapeworm)
54. Транжиры (Spree!)
55. Бабуляя (Granny)
56. Смертельная Ошибка (A Grave Mistake)
57. Зубы Выпадают (Tooth Decay)
58. Футбольные Девы (Gridiron Maidens)
59. Агент Игрек (Agent Y)
60. Без Звука (Sound Off)


Страна: США, Япония
Студия: Cartoon Network
Продолжительность: ~00:06:40 серия
Перевод: профессиональный, дубляж
Файл
Кодек: AVC
Качество: DVDRip
Видео: PAL, 768x576, 2060 kbps, 4:3
Звук:
Аудио: AC3, 2 channels, 192 kbps, 48 kHz, русский
Аудио 2: AC3, 2 channels, 192 kbps, 44,1 kHz, english
Аудио 3: AC3, 2 channels, 192 kbps, 48 kHz, thai
Субтитры: Субтитры: VobSub: english, thai
Общее
Уникальный идентификатор : 177318901594006617628800636416727500409 (0x856660D396806DEAA3143603C438C679)
Полное имя : D:MultsHi Hi Puffy AmiYumi1. Дисгармония (Dis-Harmony).mkv
Формат : Matroska
Версия формата : Version 4 / Version 2
Размер файла : 131 Мбайт
Продолжительность : 6 м. 49 с.
Общий поток : 2690 Кбит/сек
Дата кодирования : UTC 2014-11-06 16:09:07
Программа кодирования : mkvmerge v6.0.0 ('Coming Up For Air') built on Jan 20 2013 09:52:00
Библиотека кодирования : libebml v1.3.0 + libmatroska v1.4.0
Видео
Идентификатор : 1
Формат : AVC
Формат/Информация : Advanced Video Codec
Профиль формата : Baseline@L3.1
Параметр CABAC формата : Нет
Параметр ReFrames формата : 2 кадра
Параметр GOP формата : M=1, N=12
Идентификатор кодека : V_MPEG4/ISO/AVC
Продолжительность : 6 м. 49 с.
Битрейт : 2060 Кбит/сек
Ширина : 768 пикселей
Высота : 576 пикселей
Соотношение сторон : 4:3
Режим частоты кадров : Постоянный
Частота кадров : 25,000 кадров/сек
Стандарт вещания : PAL
Цветовое пространство : YUV
Субдискретизация насыщенности : 4:2:0
Битовая глубина : 8 бит
Тип развёртки : Прогрессивная
Бит/(Пиксели*Кадры) : 0.186
Размер потока : 101 Мбайт (77%)
Язык : English
Default : Да
Forced : Нет
Основные цвета : BT.601 PAL
Характеристики трансфера : BT.470 System B, BT.470 System G
Коэффициенты матрицы : BT.601
Аудио #1
Идентификатор : 2
Формат : AC-3
Формат/Информация : Audio Coding 3
Расширение режима : CM (complete main)
Параметр Endianness формата : Big
Идентификатор кодека : A_AC3
Продолжительность : 6 м. 49 с.
Вид битрейта : Постоянный
Битрейт : 192 Кбит/сек
Каналы : 2 канала
Расположение каналов : Front: L R
Частота : 48,0 КГц
Битовая глубина : 16 бит
Метод сжатия : С потерями
Задержка видео : 4 мс.
Размер потока : 9,37 Мбайт (7%)
Язык : Russian
Default : Да
Forced : Нет
Аудио #2
Идентификатор : 3
Формат : AC-3
Формат/Информация : Audio Coding 3
Расширение режима : CM (complete main)
Параметр Endianness формата : Big
Идентификатор кодека : A_AC3
Продолжительность : 6 м. 49 с.
Вид битрейта : Постоянный
Битрейт : 192 Кбит/сек
Каналы : 2 канала
Расположение каналов : Front: L R
Частота : 44,1 КГц
Битовая глубина : 16 бит
Метод сжатия : С потерями
Задержка видео : 28 мс.
Размер потока : 9,37 Мбайт (7%)
Язык : English
Default : Нет
Forced : Нет
Аудио #3
Идентификатор : 4
Формат : AC-3
Формат/Информация : Audio Coding 3
Расширение режима : CM (complete main)
Параметр Endianness формата : Big
Идентификатор кодека : A_AC3
Продолжительность : 6 м. 49 с.
Вид битрейта : Постоянный
Битрейт : 192 Кбит/сек
Каналы : 2 канала
Расположение каналов : Front: L R
Частота : 48,0 КГц
Битовая глубина : 16 бит
Метод сжатия : С потерями
Задержка видео : 16 мс.
Размер потока : 9,37 Мбайт (7%)
Язык : Thai
Default : Нет
Forced : Нет
Текст #1
Идентификатор : 5
Формат : VobSub
Режим смешивания : zlib
Идентификатор кодека : S_VOBSUB
Идентификатор кодека/Информация : The same subtitle format used on DVDs
Язык : English
Default : Нет
Forced : Нет
Текст #2
Идентификатор : 6
Формат : VobSub
Режим смешивания : zlib
Идентификатор кодека : S_VOBSUB
Идентификатор кодека/Информация : The same subtitle format used on DVDs
Язык : Thai
Default : Нет
Forced : Нет

Семпл

Релиз от: Maidaneh



   Похожие торренты   Торрент   Размер 
В этой теме нет новых непрочитанных сообщений. Джоуи / Joey [S01-02] (2004-2006) DVDRip | P

46 | 24

8.96 ГБ

В этой теме нет новых непрочитанных сообщений. Лето 2004 года / Sommer '04 (2006) DVDRip | P

125 | 36

1.37 ГБ

В этой теме нет новых непрочитанных сообщений. Сборник мультфильмов - Гора самоцветов [1-5 том] (2004-2006) DVDRip

396 | 260

4.37 ГБ

В этой теме нет новых непрочитанных сообщений. Кривое зеркало - АНТОЛОГИЯ (2004-2006) DVDRip от R.G.RealMT | КПК

95 | 28

10.38 ГБ

В этой теме нет новых непрочитанных сообщений. Кривое зеркало - АНТОЛОГИЯ (2004-2006) DVDRip от R.G.RealMT

2 | 29

26.15 ГБ

В этой теме нет новых непрочитанных сообщений. Metallica: The Videos 1989-2004 (2006) DVDRip x264 от 25KADR

65 | 10

2.27 ГБ

В этой теме нет новых непрочитанных сообщений. Зеленое крыло / Green Wing [S01 - S02] (2004 - 2006) DVDRip от Brazzass

5 | 7

13.01 ГБ




Вы не можете начинать темы
Вы не можете отвечать на сообщения
Вы не можете редактировать свои сообщения
Вы не можете удалять свои сообщения
Вы не можете добавлять вложения

Перейти:  
Для Мосгорсуда, Роскомнадзора и рекламодателей: mosgorsud-torrent[собачка]yandex.ru
 Вход
ppkBB3cker v.2 © 2008-2014 @ PPK
[ Time : 0.023s | 16 Queries | GZIP : Off ]

Торрент трекер RUTOR.IN, Не можете зайти на rutor.org? Какой новый адрес рутор? Какое зеркало рутор? Не работает rutor.org и зеркала? Тогда наш торрент специально для вас. Rutor.in неофициальное зеркало rutor. В случае если у Вас заблокирован rutor или вдруг Вы не можете на него зайти, то Вы без труда сможете скачать бесплатно и без рекламы последние новинки кино, игр, сериалов и прочего у нас, на Rutor.in. Не нужно использовать прокси, чтобы зайти на рутор, достаточно воспользоваться нашим ресурсом. Все новые фильмы, игры, сериалы, книги и музыка за 2013 и 2014 годы через торрент бесплатно. Скачивайте фильмы в хорошем качестве, игры для пк, xbox, playstation без регистрации. У нас вы найдете новые Зарубежные сериалы и Русские сериалы 2013, 2014, 2015 годов. Оставайтесь с нами, качайте любимые фильмы, игры, сериалы, книги и музыку.
cron