img image001 image001 image001 image001 image001 image001 image001 image001 image001 image001 image001 image001 image001 image001 image001

Planets Sun Sun Sun
Статистика раздачи
Автор: Nickolas3434 | Размер: 744.89 МБ | Добавлен: 15 ноя 2014
Раздают: 264    Качают: 40
Скачать торрент
Скачать торрент
Описание торрента

СообщениеДобавлено: 15 ноя 2014 

Страна: США, Китай, Франция
Производство: Mili Pictures
Жанр: фэнтези, приключения, семейный
Год выпуска: 2014
Продолжительность: 01:30:01
Перевод: Любительский (двухголосый закадровый)
Оригинальная аудиодорожка: нет
Cубтитры: китайский - вшиты в видео (хардсаб)
Режиссер: Юэфэн Сун / Yuefeng Song
Роли озвучивали:
Блайт Оффарт, Бьянка Коллинз, Саймон Джэглом...
Описание:
Действие развивается в красивом и спокойном городе Альтера – здесь всегда царит добро и гармония. В далеком прошлом остались кровавые жестокие войны – и жители города полагают, что впереди у них только спокойное светлое будущее. Но в один момент все изменилось. И причиной к ужасным и кардинальным изменениям стала безобидная игра детей – маленький мальчик, шутя, предсказал появление злого дракона, который закроет солнце. И тогда тьма и отчаяние поглотит город, и никто не сможет выжить. И сам того не подозревая, ребенок пробудил спящее зло. И над городом нависла тьма – его поглотил всеобъемлющий ужас. В страшной ночи не выжил практически никто. Лишь тот мальчик, что упал в реку, чудом остался жив. Он потерял родных и близких, он остался один в мире страха и тьмы. Так сможет ли он выжить?
Он смог – и стал сильнейшим воином, основной целью которого является желание победить высвободившееся зло и вернуть все, что было ему так дорого. И он не один – есть еще несколько доблестных воинов, которые больше всего хотят вернуть солнечный свет, покой и добро в свой родной город. И, казалось бы, битва почти выиграна – ведь благодаря объединению усилий они стали непобедимыми. Но произошло то, чего никто не ожидал – проснулся древний Черный Дракон, много лет спавший в своем логове на вершине горы. И как героям противостоять чудовищу? Как не потерять перед смертельной схваткой то немногое, что у них осталось – надежду и дружбу?
Мультфильм Гнездо дракона (2014), созданный совместными усилиями режиссеров Китая, США и Франции, непременно понравится поклонникам культовой игры Dragon Nest, поскольку он снят именно по ее мотивам. Благодаря совместным стараниям огромной команды мультфильм получился на самом деле сильным – ведь каждая минута, каждый новый эпизод держат зрителя в напряжении – и только эффектная развязка способна его снять.






Исходник: WEB-DL 720p
Тип релиза: WEB-DLRip
Контейнер: AVI
Видео: 720x400 (16:9), 24 fps, XviD ~ 1020 kbps avg, 0.148 bit/pixel
Аудио: 48 kHz, Dolby Digital AC3 2.0, 192 kbps
Раздача от:
Общее
Полное имя : Gnezdo.drakona.2014.WEB-DLRip-745_[New-team]_by_AVP_Studio.avi
Формат : AVI
Формат/Информация : Audio Video Interleave
Размер файла : 745 Мбайт
Продолжительность : 1 ч. 30 м.
Общий поток : 1157 Кбит/сек
Программа кодирования : VirtualDubModRus 1.5.10.2 (build 2542/release)
Библиотека кодирования : VirtualDubMod build 2542/release
Видео
Идентификатор : 0
Формат : MPEG-4 Visual
Профиль формата : Advanced Simple@L5
Параметр BVOP формата : 1
Параметр QPel формата : Нет
Параметр GMC формата : Без точки перехода
Параметр матрицы формата : Выборочная
Идентификатор кодека : XVID
Идентификатор кодека/Подсказка : XviD
Продолжительность : 1 ч. 30 м.
Битрейт : 1020 Кбит/сек
Ширина : 720 пикселей
Высота : 400 пикселей
Соотношение сторон : 16:9
Частота кадров : 24,000 кадра/сек
Цветовое пространство : YUV
Субдискретизация насыщенности : 4:2:0
Битовая глубина : 8 бит
Тип развёртки : Прогрессивная
Метод сжатия : С потерями
Бит/(Пиксели*Кадры) : 0.147
Размер потока : 656 Мбайт (88%)
Библиотека кодирования : XviD 73
Аудио
Идентификатор : 1
Формат : MPEG Audio
Версия формата : Version 1
Профиль формата : Layer 3
Идентификатор кодека : 55
Идентификатор кодека/Подсказка : MP3
Продолжительность : 1 ч. 30 м.
Вид битрейта : Постоянный
Битрейт : 128 Кбит/сек
Каналы : 2 канала
Частота : 48,0 КГц
Метод сжатия : С потерями
Размер потока : 82,4 Мбайт (11%)
Выравнивание : Соединение по промежуткам
Продолжительность промежутка : 42 мс. (1,00 видеокадр)
Время предзагрузки промежутка : 504 мс.
Библиотека кодирования : LAME3.99r
Настройки программы : -m s -V 4 -q 2 -lowpass 17 -b 128





   Похожие торренты   Торрент   Размер 
В этой теме нет новых непрочитанных сообщений. Гнездо Дракона / Dragon Nest: Warriors' Dawn (2014) WEB-DLRip от New-Team | L2

554 | 66

1.46 ГБ

В этой теме нет новых непрочитанных сообщений. Гнездо Дракона / Dragon Nest: Warriors' Dawn (2014) WEB-DLRip-AVC от New-Team | L2

612 | 67

1.45 ГБ

В этой теме нет новых непрочитанных сообщений. Гнездо дракона / Dragon Nest: Warriors' Dawn (2014) WEB-DLRip | iTunes

364 | 9

1.37 ГБ

В этой теме нет новых непрочитанных сообщений. Гнездо Дракона / Dragon Nest: Warriors' Dawn (2014) WEB-DLRip от Generalfilm | КПК

35 | 2

308.5 МБ

В этой теме нет новых непрочитанных сообщений. Гнездо дракона / Dragon Nest: Warriors' Dawn (2014) WEB-DLRip-AVC от ExKinoRay | iTunes

59 | 13

1.73 ГБ

В этой теме нет новых непрочитанных сообщений. Гнездо дракона / Dragon Nest: Warriors' Dawn (2014) WEBRip | L2

1105 | 51

1.37 ГБ

В этой теме нет новых непрочитанных сообщений. Гнездо дракона / Dragon Nest: Warriors' Dawn (2014) WEBRip | Звук с TS

19 | 5

1.37 ГБ




Вы не можете начинать темы
Вы не можете отвечать на сообщения
Вы не можете редактировать свои сообщения
Вы не можете удалять свои сообщения
Вы не можете добавлять вложения

Перейти:  
Для Мосгорсуда, Роскомнадзора и рекламодателей: mosgorsud-torrent[собачка]yandex.ru
 Вход
ppkBB3cker v.2 © 2008-2014 @ PPK
[ Time : 0.059s | 15 Queries | GZIP : Off ]

Торрент трекер RUTOR.IN, Не можете зайти на rutor.org? Какой новый адрес рутор? Какое зеркало рутор? Не работает rutor.org и зеркала? Тогда наш торрент специально для вас. Rutor.in неофициальное зеркало rutor. В случае если у Вас заблокирован rutor или вдруг Вы не можете на него зайти, то Вы без труда сможете скачать бесплатно и без рекламы последние новинки кино, игр, сериалов и прочего у нас, на Rutor.in. Не нужно использовать прокси, чтобы зайти на рутор, достаточно воспользоваться нашим ресурсом. Все новые фильмы, игры, сериалы, книги и музыка за 2013 и 2014 годы через торрент бесплатно. Скачивайте фильмы в хорошем качестве, игры для пк, xbox, playstation без регистрации. У нас вы найдете новые Зарубежные сериалы и Русские сериалы 2013, 2014, 2015 годов. Оставайтесь с нами, качайте любимые фильмы, игры, сериалы, книги и музыку.