img image001 image001 image001 image001 image001 image001 image001 image001 image001 image001 image001 image001 image001 image001 image001

Planets Sun Sun Sun
Статистика раздачи
Автор: Nickolas3434 | Размер: 1.45 ГБ | Добавлен: 14 ноя 2014
Раздают: 612    Качают: 67
Скачать торрент
Скачать торрент
Описание торрента

СообщениеДобавлено: 14 ноя 2014 

Страна: США, Китай, Франция
Производство: Mili Pictures
Жанр: фэнтези, приключения, семейный
Год выпуска: 2014
Продолжительность: 01:30:01
Перевод: Любительский (двухголосый закадровый)
Оригинальная аудиодорожка: китайский
Cубтитры: китайский - вшиты в видео (хардсаб)
Режиссер: Юэфэн Сун / Yuefeng Song
Роли озвучивали:
Блайт Оффарт, Бьянка Коллинз, Саймон Джэглом...
Описание:
Действие развивается в красивом и спокойном городе Альтера – здесь всегда царит добро и гармония. В далеком прошлом остались кровавые жестокие войны – и жители города полагают, что впереди у них только спокойное светлое будущее. Но в один момент все изменилось. И причиной к ужасным и кардинальным изменениям стала безобидная игра детей – маленький мальчик, шутя, предсказал появление злого дракона, который закроет солнце. И тогда тьма и отчаяние поглотит город, и никто не сможет выжить. И сам того не подозревая, ребенок пробудил спящее зло. И над городом нависла тьма – его поглотил всеобъемлющий ужас. В страшной ночи не выжил практически никто. Лишь тот мальчик, что упал в реку, чудом остался жив. Он потерял родных и близких, он остался один в мире страха и тьмы. Так сможет ли он выжить?
Он смог – и стал сильнейшим воином, основной целью которого является желание победить высвободившееся зло и вернуть все, что было ему так дорого. И он не один – есть еще несколько доблестных воинов, которые больше всего хотят вернуть солнечный свет, покой и добро в свой родной город. И, казалось бы, битва почти выиграна – ведь благодаря объединению усилий они стали непобедимыми. Но произошло то, чего никто не ожидал – проснулся древний Черный Дракон, много лет спавший в своем логове на вершине горы. И как героям противостоять чудовищу? Как не потерять перед смертельной схваткой то немногое, что у них осталось – надежду и дружбу?
Мультфильм Гнездо дракона (2014), созданный совместными усилиями режиссеров Китая, США и Франции, непременно понравится поклонникам культовой игры Dragon Nest, поскольку он снят именно по ее мотивам. Благодаря совместным стараниям огромной команды мультфильм получился на самом деле сильным – ведь каждая минута, каждый новый эпизод держат зрителя в напряжении – и только эффектная развязка способна его снять.






Исходник: WEB-DL 720p
Тип релиза: WEB-DLRip-AVC
Контейнер: MKV
Видео: 1024x576 (16:9), 24 fps, H264 ~ 1927 kbps avg, 0.136 bit/pixel
Аудио: 48 kHz, Dolby Digital AC3 2.0, 192 kbps DVO
Аудио: 48 kHz, Dolby Digital AC3 2.0, 192 kbps Китайский
Раздача от:
Общее
Полное имя : Gnezdo.drakona.2014.WEB-DLRip-AVC_[New-team]_by_AVP_Studio.mkv
Формат : Matroska
Версия формата : Version 2
Размер файла : 1,45 Гбайт
Продолжительность : 1 ч. 30 м.
Общий поток : 2311 Кбит/сек
Название фильма : Gnezdo.drakona.2014.WEB-DLRip-AVC_[New-team]_by_AVP_Studio
Дата кодирования : UTC 2014-11-13 20:56:45
Программа кодирования : mkvmerge v7.2.0 ('On Every Street') 64bit built on Sep 13 2014 15:52:10
Библиотека кодирования : libebml v1.3.0 + libmatroska v1.4.1
DURATION : 01:30:01.504000000
NUMBER_OF_FRAMES : 168797
NUMBER_OF_BYTES : 129636096
_STATISTICS_WRITING_APP : mkvmerge v7.2.0 ('On Every Street') 64bit built on Sep 13 2014 15:52:10
_STATISTICS_WRITING_DATE_UTC : 2014-11-13 20:56:45
_STATISTICS_TAGS : BPS DURATION NUMBER_OF_FRAMES NUMBER_OF_BYTES
Видео
Идентификатор : 1
Формат : AVC
Формат/Информация : Advanced Video Codec
Профиль формата : High@L4.1
Параметр CABAC формата : Да
Параметр ReFrames формата : 8 кадров
Идентификатор кодека : V_MPEG4/ISO/AVC
Продолжительность : 1 ч. 30 м.
Битрейт : 1927 Кбит/сек
Ширина : 1024 пикселя
Высота : 576 пикселей
Соотношение сторон : 16:9
Режим частоты кадров : Постоянный
Частота кадров : 24,000 кадра/сек
Цветовое пространство : YUV
Субдискретизация насыщенности : 4:2:0
Битовая глубина : 8 бит
Тип развёртки : Прогрессивная
Бит/(Пиксели*Кадры) : 0.136
Размер потока : 1,18 Гбайт (81%)
Заголовок : Источник WEB-DL
Библиотека кодирования : x264 core 138 r2356 a1d3d17
Настройки программы : cabac=1 / ref=8 / deblock=1:-3:-2 / analyse=0x3:0x113 / me=umh / subme=10 / psy=1 / psy_rd=1.00:0.05 / mixed_ref=1 / me_range=32 / chroma_me=1 / trellis=2 / 8x8dct=1 / cqm=0 / deadzone=21,11 / fast_pskip=0 / chroma_qp_offset=-3 / threads=6 / lookahead_threads=1 / sliced_threads=0 / nr=0 / decimate=0 / interlaced=0 / bluray_compat=0 / constrained_intra=0 / bframes=8 / b_pyramid=2 / b_adapt=2 / b_bias=0 / direct=3 / weightb=1 / open_gop=0 / weightp=2 / keyint=240 / keyint_min=24 / scenecut=40 / intra_refresh=0 / rc_lookahead=40 / rc=2pass / mbtree=1 / bitrate=1927 / ratetol=1.0 / qcomp=0.60 / qpmin=0 / qpmax=69 / qpstep=4 / cplxblur=20.0 / qblur=0.5 / ip_ratio=1.40 / aq=1:1.00
Язык : Chinese
Default : Да
Forced : Нет
Аудио #1
Идентификатор : 2
Формат : AC-3
Формат/Информация : Audio Coding 3
Расширение режима : CM (complete main)
Параметр Endianness формата : Big
Идентификатор кодека : A_AC3
Продолжительность : 1 ч. 30 м.
Вид битрейта : Постоянный
Битрейт : 192 Кбит/сек
Каналы : 2 канала
Расположение каналов : Front: L R
Частота : 48,0 КГц
Битовая глубина : 16 бит
Метод сжатия : С потерями
Размер потока : 124 Мбайт (8%)
Заголовок : Источник WEB-DL DVO
Язык : Russian
Default : Да
Forced : Нет
Аудио #2
Идентификатор : 3
Формат : AC-3
Формат/Информация : Audio Coding 3
Расширение режима : CM (complete main)
Параметр Endianness формата : Big
Идентификатор кодека : A_AC3
Продолжительность : 1 ч. 30 м.
Вид битрейта : Постоянный
Битрейт : 192 Кбит/сек
Каналы : 2 канала
Расположение каналов : Front: L R
Частота : 48,0 КГц
Битовая глубина : 16 бит
Метод сжатия : С потерями
Размер потока : 124 Мбайт (8%)
Заголовок : Источник WEB-DL
Язык : Chinese
Default : Нет
Forced : Нет





   Похожие торренты   Торрент   Размер 
В этой теме нет новых непрочитанных сообщений. Гнездо Дракона / Dragon Nest: Warriors' Dawn (2014) WEB-DLRip от New-Team | L2

555 | 66

1.46 ГБ

В этой теме нет новых непрочитанных сообщений. Гнездо Дракона / Dragon Nest: Warriors' Dawn (2014) WEB-DLRip от New-Team | L2

264 | 40

744.89 МБ

В этой теме нет новых непрочитанных сообщений. Гнездо дракона / Dragon Nest: Warriors' Dawn (2014) WEB-DLRip | iTunes

364 | 9

1.37 ГБ

В этой теме нет новых непрочитанных сообщений. Гнездо Дракона / Dragon Nest: Warriors' Dawn (2014) WEB-DLRip от Generalfilm | КПК

35 | 2

308.5 МБ

В этой теме нет новых непрочитанных сообщений. Гнездо дракона / Dragon Nest: Warriors' Dawn (2014) WEB-DLRip-AVC от ExKinoRay | iTunes

59 | 13

1.73 ГБ

В этой теме нет новых непрочитанных сообщений. Гнездо дракона / Dragon Nest: Warriors' Dawn (2014) WEBRip | L2

1105 | 51

1.37 ГБ

В этой теме нет новых непрочитанных сообщений. Гнездо Дракона / Dragon Nest: Warriors' Dawn (2014) HDRip-720p | SUB

804 | 66

1.66 ГБ




Вы не можете начинать темы
Вы не можете отвечать на сообщения
Вы не можете редактировать свои сообщения
Вы не можете удалять свои сообщения
Вы не можете добавлять вложения

Перейти:  
Для Мосгорсуда, Роскомнадзора и рекламодателей: mosgorsud-torrent[собачка]yandex.ru
 Вход
ppkBB3cker v.2 © 2008-2014 @ PPK
[ Time : 0.054s | 17 Queries | GZIP : Off ]

cron