img image001 image001 image001 image001 image001 image001 image001 image001 image001 image001 image001 image001 image001 image001 image001

Planets Sun Sun Sun
Статистика раздачи
Автор: Nickolas3434 | Размер: 5.75 ГБ | Добавлен: 19 ноя 2014
Раздают: 158    Качают: 13
Скачать торрент
Скачать торрент
Описание торрента

СообщениеДобавлено: 19 ноя 2014 

Информация о фильме
Название: Самолеты: Огонь и вода
Оригинальное название: Planes: Fire and Rescue
Год выхода: 2014
Жанр: Мультфильм, комедия, приключения, семейный
Режиссер: Роберт Ганнавей
В ролях: Дэйн Кук, Эд Харрис, Джули Боуэн, Кёртис Армстронг, Джон Майкл Хиггинс, Хэл Холбрук, Уэс Стьюди, Брэд Гэррет, Тери Хэтчер, Стейси Кич
О фильме:
Самолетик Дасти — который стал уже легендой воздушных гонок вскоре узнает, что его двигатель сильно повреждён, и он никогда не может больше участвовать в скоростных воздушных гонках. Дасти ищет себе новое занятие и знакомится с мужественной пожарно-спасательной командой, которой руководит ветеран авиации вертолёт по имени Ренждер. Узнав насколько тяжела и опасна работа пожарной авиации Дасти поймёт, что такое настоящий героизм и самоотдача и сам захочет стать спасателем.

Страна: США
Продолжительность: 01:23:38
Перевод: Дублированный
Файл
Кодек: x.264
Качество: BDRip 1080p
Видео: 8574 kb/s, 1920x804, 23.976 fps
Звук:
AC3, 640 kb/s (6Ch)-дубляж
AC3, 640 kb/s (6Ch)-оригинал
Субтитры: русские, английские

Общее
Формат : Matroska
Версия формата : Version 2
Размер файла : 5,75 Гбайт
Продолжительность : 1 ч. 23 м.
Общий поток : 9847 Кбит/сек
Название фильма : Самолеты: Огонь и вода / Planes: Fire and Rescue (2014) BDRip 1080p от Neofilm
Дата кодирования : UTC 2014-11-16 04:37:59
Программа кодирования : mkvmerge v5.8.0 ('No Sleep / Pillow') built on Sep 2 2012 15:37:04
Библиотека кодирования : libebml v1.2.3 + libmatroska v1.3.0
Видео
Идентификатор : 1
Формат : AVC
Формат/Информация : Advanced Video Codec
Профиль формата : High@L4.1
Параметр CABAC формата : Да
Параметр ReFrames формата : 5 кадров
Идентификатор кодека : V_MPEG4/ISO/AVC
Продолжительность : 1 ч. 23 м.
Битрейт : 8574 Кбит/сек
Ширина : 1920 пикселей
Высота : 804 пикселя
Соотношение сторон : 2,40:1
Режим частоты кадров : Постоянный
Частота кадров : 23,976 кадра/сек
Цветовое пространство : YUV
Субдискретизация насыщенности : 4:2:0
Битовая глубина : 8 бит
Тип развёртки : Прогрессивная
Бит/(Пиксели*Кадры) : 0.232
Размер потока : 4,89 Гбайт (85%)
Заголовок : Planes: Fire and Rescue (2014)
Библиотека кодирования : x264 core 142 r2479 dd79a61
Настройки программы : cabac=1 / ref=5 / deblock=1:-3:-3 / analyse=0x3:0x113 / me=umh / subme=11 / psy=1 / psy_rd=1.02:0.03 / mixed_ref=1 / me_range=32 / chroma_me=1 / trellis=2 / 8x8dct=1 / cqm=0 / deadzone=21,11 / fast_pskip=0 / chroma_qp_offset=-3 / threads=12 / lookahead_threads=2 / sliced_threads=0 / nr=0 / decimate=0 / interlaced=0 / bluray_compat=0 / constrained_intra=0 / bframes=7 / b_pyramid=2 / b_adapt=2 / b_bias=0 / direct=3 / weightb=1 / open_gop=0 / weightp=2 / keyint=240 / keyint_min=23 / scenecut=40 / intra_refresh=0 / rc_lookahead=50 / rc=2pass / mbtree=0 / bitrate=8574 / ratetol=1.0 / qcomp=0.60 / qpmin=0 / qpmax=69 / qpstep=4 / cplxblur=20.0 / qblur=0.5 / vbv_maxrate=50000 / vbv_bufsize=62500 / nal_hrd=none / filler=0 / ip_ratio=1.40 / pb_ratio=1.30 / aq=1:1.00
Язык : English
Default : Нет
Forced : Нет
Аудио #1
Идентификатор : 2
Формат : AC-3
Формат/Информация : Audio Coding 3
Расширение режима : CM (complete main)
Параметр Endianness формата : Big
Идентификатор кодека : A_AC3
Продолжительность : 1 ч. 23 м.
Вид битрейта : Постоянный
Битрейт : 640 Кбит/сек
Каналы : 6 каналов
Расположение каналов : Front: L C R, Side: L R, LFE
Частота : 48,0 КГц
Битовая глубина : 16 бит
Метод сжатия : С потерями
Размер потока : 383 Мбайт (6%)
Заголовок : Dub
Язык : Russian
Default : Да
Forced : Да
Аудио #2
Идентификатор : 3
Формат : AC-3
Формат/Информация : Audio Coding 3
Расширение режима : CM (complete main)
Параметр Endianness формата : Big
Идентификатор кодека : A_AC3
Продолжительность : 1 ч. 23 м.
Вид битрейта : Постоянный
Битрейт : 640 Кбит/сек
Каналы : 6 каналов
Расположение каналов : Front: L C R, Side: L R, LFE
Частота : 48,0 КГц
Битовая глубина : 16 бит
Метод сжатия : С потерями
Размер потока : 383 Мбайт (6%)
Заголовок : Original
Язык : English
Default : Нет
Forced : Нет
Текст #1
Идентификатор : 4
Формат : UTF-8
Идентификатор кодека : S_TEXT/UTF8
Идентификатор кодека/Информация : UTF-8 Plain Text
Заголовок : Forced
Язык : Russian
Default : Да
Forced : Да
Текст #2
Идентификатор : 5
Формат : UTF-8
Идентификатор кодека : S_TEXT/UTF8
Идентификатор кодека/Информация : UTF-8 Plain Text
Заголовок : Full
Язык : Russian
Default : Нет
Forced : Нет
Текст #3
Идентификатор : 6
Формат : UTF-8
Идентификатор кодека : S_TEXT/UTF8
Идентификатор кодека/Информация : UTF-8 Plain Text
Заголовок : Full
Язык : English
Default : Нет
Forced : Нет
Текст #4
Идентификатор : 7
Формат : UTF-8
Идентификатор кодека : S_TEXT/UTF8
Идентификатор кодека/Информация : UTF-8 Plain Text
Заголовок : SDH
Язык : English
Default : Нет
Forced : Нет
Текст #5
Идентификатор : 8
Формат : UTF-8
Идентификатор кодека : S_TEXT/UTF8
Идентификатор кодека/Информация : UTF-8 Plain Text
Заголовок : SDH-Colored
Язык : English
Default : Нет
Forced : Нет
Меню
00:00:00.000 : en:(01)00:00:00:000
00:03:27.790 : en:(02)00:03:27:790
00:07:48.593 : en:(03)00:07:48:593
00:12:36.005 : en:(04)00:12:36:005
00:17:38.849 : en:(05)00:17:38:849
00:22:55.165 : en:(06)00:22:55:165
00:27:45.288 : en:(07)00:27:45:288
00:32:37.205 : en:(08)00:32:37:205
00:35:24.789 : en:(09)00:35:24:789
00:38:31.017 : en:(10)00:38:31:017
00:41:38.287 : en:(11)00:41:38:287
00:47:21.046 : en:(12)00:47:21:046
00:55:00.714 : en:(13)00:55:00:714
00:57:29.028 : en:(14)00:57:29:028
01:00:33.880 : en:(15)01:00:33:880
01:05:22.710 : en:(16)01:05:22:710
01:09:07.685 : en:(17)01:09:07:685
01:13:55.264 : en:(18)01:13:55:264
01:23:38.263 : en:(19)01:23:38:263

Релиз от:



   Похожие торренты   Торрент   Размер 
В этой теме нет новых непрочитанных сообщений. Самолёты: Огонь и вода / Planes: Fire and Rescue (2014) BDRip-1080p | Звук с TS

144 | 3

3.64 ГБ

В этой теме нет новых непрочитанных сообщений. Самолеты: Огонь и вода / Planes: Fire and Rescue (2014) BDRip 1080p от HDClub

99 | 20

8.75 ГБ

В этой теме нет новых непрочитанных сообщений. Самолёты: Огонь и вода / Planes: Fire and Rescue (2014) BDRip 1080p от ExKinoRay | Лицензия

608 | 24

5.8 ГБ

В этой теме нет новых непрочитанных сообщений. Самолеты: Огонь и вода / Planes: Fire and Rescue (2014) Blu-ray 1080p

31 | 12

29.47 ГБ

В этой теме нет новых непрочитанных сообщений. Самолёты: Огонь и вода / Planes: Fire and Rescue (2014) BDRip 1080p от ExKinoRay | Чистый звук

727 | 11

5.65 ГБ

В этой теме нет новых непрочитанных сообщений. Самолеты: Огонь и вода / Planes: Fire and Rescue (2014) BDRip 1080p от Leonardo and Scarabey | Лицензия

1062 | 26

3.6 ГБ

В этой теме нет новых непрочитанных сообщений. Самолёты: Огонь и вода / Planes: Fire and Rescue (2014) BDRip 1080p от ExKinoRay | Чистый звук

530 | 11

5.65 ГБ




Вы не можете начинать темы
Вы не можете отвечать на сообщения
Вы не можете редактировать свои сообщения
Вы не можете удалять свои сообщения
Вы не можете добавлять вложения

Перейти:  
Для Мосгорсуда, Роскомнадзора и рекламодателей: mosgorsud-torrent[собачка]yandex.ru
 Вход
ppkBB3cker v.2 © 2008-2014 @ PPK
[ Time : 0.063s | 15 Queries | GZIP : Off ]

Торрент трекер RUTOR.IN, Не можете зайти на rutor.org? Какой новый адрес рутор? Какое зеркало рутор? Не работает rutor.org и зеркала? Тогда наш торрент специально для вас. Rutor.in неофициальное зеркало rutor. В случае если у Вас заблокирован rutor или вдруг Вы не можете на него зайти, то Вы без труда сможете скачать бесплатно и без рекламы последние новинки кино, игр, сериалов и прочего у нас, на Rutor.in. Не нужно использовать прокси, чтобы зайти на рутор, достаточно воспользоваться нашим ресурсом. Все новые фильмы, игры, сериалы, книги и музыка за 2013 и 2014 годы через торрент бесплатно. Скачивайте фильмы в хорошем качестве, игры для пк, xbox, playstation без регистрации. У нас вы найдете новые Зарубежные сериалы и Русские сериалы 2013, 2014, 2015 годов. Оставайтесь с нами, качайте любимые фильмы, игры, сериалы, книги и музыку.