img image001 image001 image001 image001 image001 image001 image001 image001 image001 image001 image001 image001 image001 image001 image001

Planets Sun Sun Sun
Статистика раздачи
Автор: Nickolas3434 | Размер: 1.38 ГБ | Добавлен: 19 ноя 2014
Раздают: 126    Качают: 21
Скачать торрент
Скачать торрент
Описание торрента

СообщениеДобавлено: 19 ноя 2014 

Информация о фильме
Название: Звероферма
Оригинальное название: Animal Farm
Год выхода: 1954
Жанр: Мультфильм, драма, комедия, полнометражный
Режиссер: Джой Батчелор, Джон Халас
В ролях: Гордон Хит, Морис Денэм
О фильме:
В этом мире, который мы все знаем, в этом прекрасном мире снова наступила весна. Но всего волшебства весны было недостаточно, чтобы уменьшить страдания обитателей частной фермы Джонса. Когда-то мистер Джонс владел процветающей и доходной фермой, но сейчас его дела шли из рук вон плохо. Из-за невозможности решить свои проблемы мистер Джонс начал злоупотреблять выпивкой. Среди бедных своих собутыльников он нашел хороших слушателей, которым мог рассказать о своих горестях... Наша необычная история начинается вечером, когда мистер Джонс пришел после очередной попойки позже, чем обычно...

Страна: Великобритания, Halas & Batchelor
Продолжительность: 01:12:06
Перевод: Профессиональный многоголосый
Дата релиза: 17.11.2014
Файл
Кодек: H.264
Качество: BDRip (AVC)
Видео: MPEG-4 AVC, 2350 Кбит/с, 784x576
Звук: Русский, английский (AC3, 2 ch, 192 Кбит/с)
Общее
Уникальный идентификатор : 231593465257122502668003314939123476525 (0xAE3B476A5608ECBA9C463C32A198282D)
Полное имя : D:7Zveroferma.1954.x264.BDRip.(AVC).ExKinoRay.mkv
Формат : Matroska
Размер файла : 1,38 Гбайт
Продолжительность : 1 ч. 13 м.
Общий поток : 2706 Кбит/сек
Название фильма : Zveroferma.1954.x264.BDRip.(AVC).ExKinoRay
Дата кодирования : UTC 2014-11-17 16:13:46
Программа кодирования : mkvmerge v4.0.0 ('The Stars were mine') сборка от Jun 6 2010 16:18:42
Библиотека кодирования : libebml v1.0.0 + libmatroska v1.0.0
Видео
Идентификатор : 1
Формат : AVC
Формат/Информация : Advanced Video Codec
Профиль формата : High@L4.1
Параметр CABAC формата : Да
Параметр ReFrames формата : 8 кадров
Идентификатор кодека : V_MPEG4/ISO/AVC
Продолжительность : 1 ч. 13 м.
Битрейт : 2350 Кбит/сек
Ширина : 784 пикс.
Высота : 576 пикс.
Соотношение сторон : 4:3
Частота кадров : 24,000 кадр/сек
Цветовое пространство : YUV
Подвыборка цветности : 4:2:0
Битовая глубина : 8 бит
Тип развёртки : Прогрессивная
Бит/(Пиксели*Кадры) : 0.217
Размер потока : 1,16 Гбайт (84%)
Заголовок : Rip by Enigma-Vladislav71
Библиотека кодирования : x264 core 125 r2208 d9d2288
Настройки программы : cabac=1 / ref=8 / deblock=1:-2:-2 / analyse=0x3:0x133 / me=umh / subme=11 / psy=1 / psy_rd=1.00:0.00 / mixed_ref=1 / me_range=48 / chroma_me=1 / trellis=2 / 8x8dct=1 / cqm=0 / deadzone=21,11 / fast_pskip=0 / chroma_qp_offset=-2 / threads=3 / lookahead_threads=1 / sliced_threads=0 / nr=0 / decimate=0 / interlaced=0 / bluray_compat=0 / constrained_intra=0 / bframes=8 / b_pyramid=2 / b_adapt=2 / b_bias=0 / direct=3 / weightb=1 / open_gop=0 / weightp=2 / keyint=240 / keyint_min=23 / scenecut=40 / intra_refresh=0 / rc=2pass / mbtree=0 / bitrate=2350 / ratetol=1.0 / qcomp=0.60 / qpmin=10 / qpmax=51 / qpstep=4 / cplxblur=20.0 / qblur=0.5 / ip_ratio=1.40 / pb_ratio=1.30 / aq=1:1.00
Язык : English
Аудио #1
Идентификатор : 2
Формат : AC-3
Формат/Информация : Audio Coding 3
Расширение режима : CM (complete main)
Идентификатор кодека : A_AC3
Продолжительность : 1 ч. 13 м.
Вид битрейта : Постоянный
Битрейт : 192 Кбит/сек
Каналы : 2 канала
Расположение каналов : Front: L R
Частота : 48,0 КГц
Битовая глубина : 16 бит
Метод сжатия : С потерями
Размер потока : 100 Мбайт (7%)
Язык : Russian
Аудио #2
Идентификатор : 3
Формат : AC-3
Формат/Информация : Audio Coding 3
Расширение режима : CM (complete main)
Идентификатор кодека : A_AC3
Продолжительность : 1 ч. 13 м.
Вид битрейта : Постоянный
Битрейт : 192 Кбит/сек
Каналы : 2 канала
Расположение каналов : Front: L R
Частота : 48,0 КГц
Битовая глубина : 16 бит
Метод сжатия : С потерями
Размер потока : 100 Мбайт (7%)
Язык : English
Меню
00:00:00.000 : en:Chapter 01
00:03:47.000 : en:Chapter 02
00:12:06.000 : en:Chapter 03
00:19:19.000 : en:Chapter 04
00:23:30.000 : en:Chapter 05
00:28:03.000 : en:Chapter 06
00:31:42.625 : en:Chapter 07
00:38:01.416 : en:Chapter 08
00:42:38.000 : en:Chapter 09
00:50:15.000 : en:Chapter 10
00:57:10.000 : en:Chapter 11
01:04:38.000 : en:Chapter 12


Релиз от:
Авторы релиза:



   Похожие торренты   Торрент   Размер 
В этой теме нет новых непрочитанных сообщений. Звероферма / Animal Farm (1954) BDRip от ExKinoRay

57 | 22

1.06 ГБ

В этой теме нет новых непрочитанных сообщений. Звероферма / Animal Farm (1954) DVDRip

18 | 3

700.26 МБ

В этой теме нет новых непрочитанных сообщений. Звероферма / Скотный двор / Ферма тварин / Animal Farm (1954) BDRip 720p от Leonardo and Scarabey | P

38 | 6

3.3 ГБ

В этой теме нет новых непрочитанных сообщений. Animal Planet: Дикие и опасные. Нападение гепарда / Animal Planet: Untamed Uncut (2008) IPTVRip от ExKinoRay

3 | 1

511.68 МБ

В этой теме нет новых непрочитанных сообщений. Animal Planet: История олененка / Animal Planet: The Littlest Reindeer (2003) DVDRip от ExKinoRay

19 | 4

698.93 МБ

В этой теме нет новых непрочитанных сообщений. Animal Planet: Армагеддон животных / Animal Planet: Animal Armageddon [01-08 из 08] (2009) BDRip-AVC от Тorrent-Хzona

21 | 6

4.72 ГБ

В этой теме нет новых непрочитанных сообщений. Египтянин / The Egyptian (1954) BDRip-AVC от ExKinoRay | P2, P

20 | 9

4.2 ГБ




Вы не можете начинать темы
Вы не можете отвечать на сообщения
Вы не можете редактировать свои сообщения
Вы не можете удалять свои сообщения
Вы не можете добавлять вложения

Перейти:  
Для Мосгорсуда, Роскомнадзора и рекламодателей: mosgorsud-torrent[собачка]yandex.ru
 Вход
ppkBB3cker v.2 © 2008-2014 @ PPK
[ Time : 0.117s | 16 Queries | GZIP : Off ]

Торрент трекер RUTOR.IN, Не можете зайти на rutor.org? Какой новый адрес рутор? Какое зеркало рутор? Не работает rutor.org и зеркала? Тогда наш торрент специально для вас. Rutor.in неофициальное зеркало rutor. В случае если у Вас заблокирован rutor или вдруг Вы не можете на него зайти, то Вы без труда сможете скачать бесплатно и без рекламы последние новинки кино, игр, сериалов и прочего у нас, на Rutor.in. Не нужно использовать прокси, чтобы зайти на рутор, достаточно воспользоваться нашим ресурсом. Все новые фильмы, игры, сериалы, книги и музыка за 2013 и 2014 годы через торрент бесплатно. Скачивайте фильмы в хорошем качестве, игры для пк, xbox, playstation без регистрации. У нас вы найдете новые Зарубежные сериалы и Русские сериалы 2013, 2014, 2015 годов. Оставайтесь с нами, качайте любимые фильмы, игры, сериалы, книги и музыку.
cron