img image001 image001 image001 image001 image001 image001 image001 image001 image001 image001 image001 image001 image001 image001 image001

Planets Sun Sun Sun
Статистика раздачи
Автор: Nickolas3434 | Размер: 5.31 ГБ | Добавлен: 19 ноя 2014
Раздают: 197    Качают: 51
Скачать торрент
Скачать торрент
Описание торрента

СообщениеДобавлено: 19 ноя 2014 

Информация о фильме
Название: Железяки
Оригинальное название: Yak
Год выхода: 2012
Жанр: Мультфильм, фантастика, фэнтези, комедия, семейный
Режиссер: Прапас Чолсаранонт
Роли дублировали: Антон Савенков, Александр Ревва, Владимир Рыбальченко, Михаил Галустян
О фильме:
Вернувшись к жизни после долгих лет сна, роботы Здоровяк и Микро с удивлением обнаруживают, что их тела прочно соединены крепкой цепью. Увы, время стерло им память, и теперь они вынуждены вдвоем отправиться в трудное и опасное путешествие, чтобы вновь обрести свободу. Долгие странствия, наполненные удивительными приключениями, трудными испытаниями и великими подвигами, превращают наших героев в настоящих друзей. Но их дружбе предстоит пройти еще одно, самое главное испытание…

Страна: Таиланд
Студия: Work Point Entertainment
Продолжительность: 01:33:16
Перевод: Дублированный
Файл
Кодек: MPEG-4 AVC
Качество: HDTV 1080i
Видео: 7299 Кбит/с, 1920x1080, 25.000 кадр/с
Звук: Русский (АС3, 6 ch, 448 Кбит/с)
Семпл

Общее
Идентификатор : 20 (0x14)
Полное имя : Zhelezjaki.2012.HDTV(1080i).MediaClub.ts
Формат : MPEG-TS
Размер файла : 5,31 Гбайт
Продолжительность : 1 ч. 33 м.
Режим общего битрейта : Переменный
Общий поток : 8155 Кбит/сек
Видео
Идентификатор : 302 (0x12E)
Идентификатор меню : 20102 (0x4E86)
Формат : AVC
Формат/Информация : Advanced Video Codec
Профиль формата : High@L4.0
Параметр CABAC формата : Да
Параметр ReFrames формата : 4 кадра
Идентификатор кодека : 27
Продолжительность : 1 ч. 33 м.
Битрейт : 7299 Кбит/сек
Ширина : 1920 пикселей
Высота : 1080 пикселей
Соотношение сторон : 16:9
Частота кадров : 25,000 кадров/сек
Стандарт вещания : Component
Цветовое пространство : YUV
Субдискретизация насыщенности : 4:2:0
Битовая глубина : 8 бит
Тип развёртки : Чересстрочная
Порядок развёртки : Верхнее поле первое
Бит/(Пиксели*Кадры) : 0.141
Размер потока : 4,76 Гбайт (90%)
Основные цвета : BT.709
Характеристики трансфера : BT.709
Коэффициенты матрицы : BT.709
Аудио
Идентификатор : 402 (0x192)
Идентификатор меню : 20102 (0x4E86)
Формат : AC-3
Формат/Информация : Audio Coding 3
Расширение режима : CM (complete main)
Параметр Endianness формата : Big
Идентификатор кодека : 6
Продолжительность : 1 ч. 33 м.
Вид битрейта : Постоянный
Битрейт : 448 Кбит/сек
Каналы : 6 каналов
Расположение каналов : Front: L C R, Side: L R, LFE
Частота : 48,0 КГц
Битовая глубина : 16 бит
Метод сжатия : С потерями
Задержка видео : -848 мс.
Размер потока : 299 Мбайт (5%)
Язык : Russian
Язык, дополнительно : Clean effects
Меню
Идентификатор : 2002 (0x7D2)
Идентификатор меню : 20102 (0x4E86)
Продолжительность : 1 ч. 33 м.
Список : 302 (0x12E) (AVC) / 402 (0x192) (AC-3, Russian)
Язык : / Russian

Релиз от:



   Похожие торренты   Торрент   Размер 
В этой теме нет новых непрочитанных сообщений. Сектор Зеро / Section zéro [01-04 из 8] (2016) HDTV 1080i HDTV 1080i от MediaClub | P

10 | 3

9.5 ГБ

В этой теме нет новых непрочитанных сообщений. МосГаз [01-02 из 08] (2012) HDTV 1080i от MediaClub

140 | 12

6.19 ГБ

В этой теме нет новых непрочитанных сообщений. Петрович [01-04 из 24] (2012) HDTV 1080i от MediaClub

68 | 26

11.25 ГБ

В этой теме нет новых непрочитанных сообщений. Искупление (2012) HDTV 1080i от MediaClub

44 | 13

9.62 ГБ

В этой теме нет новых непрочитанных сообщений. МосГаз [01-02 из 08] (2012) HDTV 1080i от MediaClub

80 | 28

26.08 ГБ

В этой теме нет новых непрочитанных сообщений. Кремень [01-04 из 04] (2012) HDTV 1080i от MediaClub

28 | 8

10.79 ГБ

В этой теме нет новых непрочитанных сообщений. Схватка [01-04 из 04] (2012) HDTV 1080i от MediaClub

132 | 47

13.1 ГБ




Вы не можете начинать темы
Вы не можете отвечать на сообщения
Вы не можете редактировать свои сообщения
Вы не можете удалять свои сообщения
Вы не можете добавлять вложения

Перейти:  
Для Мосгорсуда, Роскомнадзора и рекламодателей: mosgorsud-torrent[собачка]yandex.ru
 Вход
ppkBB3cker v.2 © 2008-2014 @ PPK
[ Time : 0.030s | 15 Queries | GZIP : Off ]

Торрент трекер RUTOR.IN, Не можете зайти на rutor.org? Какой новый адрес рутор? Какое зеркало рутор? Не работает rutor.org и зеркала? Тогда наш торрент специально для вас. Rutor.in неофициальное зеркало rutor. В случае если у Вас заблокирован rutor или вдруг Вы не можете на него зайти, то Вы без труда сможете скачать бесплатно и без рекламы последние новинки кино, игр, сериалов и прочего у нас, на Rutor.in. Не нужно использовать прокси, чтобы зайти на рутор, достаточно воспользоваться нашим ресурсом. Все новые фильмы, игры, сериалы, книги и музыка за 2013 и 2014 годы через торрент бесплатно. Скачивайте фильмы в хорошем качестве, игры для пк, xbox, playstation без регистрации. У нас вы найдете новые Зарубежные сериалы и Русские сериалы 2013, 2014, 2015 годов. Оставайтесь с нами, качайте любимые фильмы, игры, сериалы, книги и музыку.