img image001 image001 image001 image001 image001 image001 image001 image001 image001 image001 image001 image001 image001 image001 image001

Planets Sun Sun Sun
Статистика раздачи
Автор: Nickolas3434 | Размер: 2.35 ГБ | Добавлен: 23 ноя 2014
Раздают: 740    Качают: 15
Скачать торрент
Скачать торрент
Описание торрента

СообщениеДобавлено: 23 ноя 2014 

Информация о фильме
Название: Скуби-Ду: Франкен-монстр
Оригинальное название: cooby-Doo! Frankencreepy
Год выхода: 2014
Жанр: мультфильм, триллер, семейный
Режиссер: Пол МакЭвой
В ролях: Фрэнк Уэлкер, Минди Кон, Грэй ДеЛисл, Мэттью Лиллард, Дидрих Бадер, Ди Брэдли Бейкер, Эрик Бауза, Джефф Беннетт, Сьюзан Блэйксли, Кори Бертон
О фильме:
Компания друзей узнают, что их злобные враги, которых они так долго сажали в тюрьму, вышли и объединились, теперь им нужно скрыться на время. И вот, друзья снова в своем небольшом фургоне и на всех парах едут в Пенсильванию. Прибыв туда, они решаются остановиться в замке.. Но пока друзья думали о том, какой им план разработать по собственному спасению, Скуби и Шегги уже в новые неприятности влипли. Друзей ждет еще больше приключений в загадочном мрачном старинном замке.
Новые приключения в Пенсильвании ждут главных героев.
Например ведьма Велма, которая не на стороне добра, в городе есть загадочные существа. Время покажет, что проживать в замки не так уж и весело, ведь он с мистическими событиями. Переждав немного компания друзей не решаются больше оставаться в замке и уезжают на своем чудном фургоне.
Как всегда Скуби и его лучший друг Шегги нарываются в городе Пенсильвании на новые серьезные приключения, из которых выбираться всем, но самое важное остается для двух весельчаков - это их желудки. Фред и Дафни сражаются в пещере с преступником лицо, которого скрыто под маской. Призрак из прошлого который так умело сражался с Фредом замыслил уничтожить друзей в этом ему помогает ведьма из замка. Что же будет дальше с главными героями? Ответы рядом.

Выпущено: США / Warner Bros. Animation, Hanna-Barbera Productions
Продолжительность: 01:14:00
Озвучивание: Профессиональное (многоголосое) [Line]
Файл
Формат: MKV
Качество: BDRip 720p
Видео: 2720 Kb/s, 1280x720
Аудио: Russian: AC3, 320 Kb/s (2 ch), English: DTS, 1509 Kb/s (6 ch)
Релиз группы &

Общее
Уникальный идентификатор : 225574631675890291515396759059337464228 (0xA9B41802384687F2A5BF9232294649A4)
Полное имя : C:UsersAlexeyDownloadsScooby-Doo.Frankencreepy.BDRip.720p.ELEKTRI4KA.mkv
Формат : Matroska
Версия формата : Version 2
Размер файла : 2,35 Гбайт
Продолжительность : 1 ч. 13 м.
Общий поток : 4544 Кбит/сек
Название фильма : Scooby-Doo.Frankencreepy.BDRip.720p.ELEKTRI4KA.[kolbas]
Дата кодирования : UTC 2014-11-22 08:46:02
Программа кодирования : mkvmerge v5.6.0 ('Kenya Kane') built on Jun 29 2012 15:01:44
Библиотека кодирования : libebml v1.2.3 + libmatroska v1.3.0
Видео
Идентификатор : 1
Формат : AVC
Формат/Информация : Advanced Video Codec
Профиль формата : High@L3.1
Параметр CABAC формата : Да
Параметр ReFrames формата : 5 кадров
Идентификатор кодека : V_MPEG4/ISO/AVC
Продолжительность : 1 ч. 13 м.
Битрейт : 2720 Кбит/сек
Ширина : 1280 пикселей
Высота : 720 пикселей
Соотношение сторон : 16:9
Режим частоты кадров : Постоянный
Частота кадров : 23,976 кадра/сек
Цветовое пространство : YUV
Субдискретизация насыщенности : 4:2:0
Битовая глубина : 8 бит
Тип развёртки : Прогрессивная
Бит/(Пиксели*Кадры) : 0.123
Размер потока : 1,35 Гбайт (58%)
Библиотека кодирования : x264 core 142 r2453 ea0ca51
Настройки программы : cabac=1 / ref=5 / deblock=1:2:1 / analyse=0x3:0x113 / me=umh / subme=8 / psy=1 / psy_rd=0.60:0.00 / mixed_ref=1 / me_range=16 / chroma_me=1 / trellis=1 / 8x8dct=1 / cqm=0 / deadzone=21,11 / fast_pskip=0 / chroma_qp_offset=-2 / threads=6 / lookahead_threads=1 / sliced_threads=0 / nr=0 / decimate=1 / interlaced=0 / bluray_compat=0 / constrained_intra=0 / bframes=5 / b_pyramid=2 / b_adapt=2 / b_bias=0 / direct=3 / weightb=1 / open_gop=0 / weightp=2 / keyint=250 / keyint_min=23 / scenecut=40 / intra_refresh=0 / rc_lookahead=50 / rc=2pass / mbtree=1 / bitrate=2720 / ratetol=1.0 / qcomp=0.60 / qpmin=0 / qpmax=69 / qpstep=4 / cplxblur=20.0 / qblur=0.5 / ip_ratio=1.40 / aq=1:0.60
Default : Да
Forced : Нет
Аудио #1
Идентификатор : 2
Формат : AC-3
Формат/Информация : Audio Coding 3
Расширение режима : CM (complete main)
Параметр Endianness формата : Big
Идентификатор кодека : A_AC3
Продолжительность : 1 ч. 13 м.
Вид битрейта : Постоянный
Битрейт : 320 Кбит/сек
Каналы : 2 канала
Расположение каналов : Front: L R
Частота : 48,0 КГц
Битовая глубина : 16 бит
Метод сжатия : С потерями
Размер потока : 169 Мбайт (7%)
Заголовок : Scooby-Doo.Frankencreepy.BDRip.720p.ELEKTRI4KA.RUS.[kolbas]
Язык : Russian
Default : Да
Forced : Да
Аудио #2
Идентификатор : 3
Формат : DTS
Формат/Информация : Digital Theater Systems
Режим : 16
Параметр Endianness формата : Big
Идентификатор кодека : A_DTS
Продолжительность : 1 ч. 13 м.
Вид битрейта : Постоянный
Битрейт : 1509 Кбит/сек
Каналы : 6 каналов
Расположение каналов : Front: L C R, Side: L R, LFE
Частота : 48,0 КГц
Битовая глубина : 24 бит
Метод сжатия : С потерями
Размер потока : 798 Мбайт (33%)
Заголовок : Scooby-Doo.Frankencreepy.BDRip.720p.ELEKTRI4KA.ENG.[kolbas]
Язык : English
Default : Нет
Forced : Нет



   Похожие торренты   Торрент   Размер 
В этой теме нет новых непрочитанных сообщений. Скуби-Ду: Франкен-монстр / Scooby-Doo! Frankencreepy (2014) BDRip 720p от Leonardo and Scarabey | Чистый звук

621 | 30

1.76 ГБ

В этой теме нет новых непрочитанных сообщений. Скуби-Ду: Франкен-монстр / Scooby-Doo! Frankencreepy (2014) BDRip 1080p | Чистый звук

112 | 17

4.53 ГБ

В этой теме нет новых непрочитанных сообщений. Скуби-Ду: Франкен-монстр / Scooby-Doo! Frankencreepy (2014) HDRip | Чистый звук

704 | 41

1.37 ГБ

В этой теме нет новых непрочитанных сообщений. Скуби-Ду: Франкен-монстр / Scooby-Doo! Frankencreepy (2014) BDRip от HQCLUB | Лицензия

483 | 34

1.45 ГБ

В этой теме нет новых непрочитанных сообщений. Скуби-Ду! Лунный безумный монстр / Scooby-Doo! Moon Monster Madness (2015) WEB-DLRip | P | Чистый звук

765 | 37

1.37 ГБ

В этой теме нет новых непрочитанных сообщений. Скуби-Ду и монстр из Мексики / Скуби-Ду и мексиканский монстр / Scooby-Doo! and the Monster of Mexico (2003) BDRip от HQCLUB

21 | 5

1.46 ГБ

В этой теме нет новых непрочитанных сообщений. Скуби-Ду и монстр из Мексики / Scooby-Doo! and the Monster of Mexico (2003) BDRip 720p от Leonardo and Scarabey

208 | 13

2.03 ГБ




Вы не можете начинать темы
Вы не можете отвечать на сообщения
Вы не можете редактировать свои сообщения
Вы не можете удалять свои сообщения
Вы не можете добавлять вложения

Перейти:  
Для Мосгорсуда, Роскомнадзора и рекламодателей: mosgorsud-torrent[собачка]yandex.ru
 Вход
ppkBB3cker v.2 © 2008-2014 @ PPK
[ Time : 0.025s | 15 Queries | GZIP : Off ]

Торрент трекер RUTOR.IN, Не можете зайти на rutor.org? Какой новый адрес рутор? Какое зеркало рутор? Не работает rutor.org и зеркала? Тогда наш торрент специально для вас. Rutor.in неофициальное зеркало rutor. В случае если у Вас заблокирован rutor или вдруг Вы не можете на него зайти, то Вы без труда сможете скачать бесплатно и без рекламы последние новинки кино, игр, сериалов и прочего у нас, на Rutor.in. Не нужно использовать прокси, чтобы зайти на рутор, достаточно воспользоваться нашим ресурсом. Все новые фильмы, игры, сериалы, книги и музыка за 2013 и 2014 годы через торрент бесплатно. Скачивайте фильмы в хорошем качестве, игры для пк, xbox, playstation без регистрации. У нас вы найдете новые Зарубежные сериалы и Русские сериалы 2013, 2014, 2015 годов. Оставайтесь с нами, качайте любимые фильмы, игры, сериалы, книги и музыку.