img image001 image001 image001 image001 image001 image001 image001 image001 image001 image001 image001 image001 image001 image001 image001

Planets Sun Sun Sun
Статистика раздачи
Автор: Nickolas3434 | Размер: 4.67 ГБ | Добавлен: 26 ноя 2014
Раздают: 30    Качают: 6
Скачать торрент
Скачать торрент
Описание торрента

СообщениеДобавлено: 26 ноя 2014 

Информация о фильме
Название: Звездные войны: Повстанцы
Оригинальное название: Star Wars Rebels
Год выхода: 2014
Жанр: мультфильм, фантастика, фэнтези, боевик, приключения
Режиссер: Стюарт Ли, Дэйв Филони, Стивен Дж. Ли
В ролях: Ванесса Маршалл, Фредди Принц мл., Стивен Блум, Тия Сиркар, Тейлор Грэй, Дэвид Ойелоуо, Кит Шарабайка, Лайам О’Брайэн, Грег Уайзман, Грег Эллис

Роли озвучивали: Тимиркан Сиюхов и Маргарита Щелкунова

О фильме: Анимационный телесериал, действие которого разворачивается в период между фильмами «Звёздные войны. Эпизод III: Месть ситхов» и «Звёздные войны. Эпизод IV: Новая надежда». Сериал будет рассказывать о разномастной группе повстанцев, экипаже космического корабля «Призрак», и их борьбе против Галактической Империи.

Продолжительность: 3 x~00:22:00 + 1 x~00:44:00
Перевод: Любительский (двухголосый) [LE-Production]
Субтитры: отсутствуют

Файл
Формат: MKV
Качество: WEB-DL 1080p
Видео: 1920 x 1080 (16:9), 23.976 fps, AVC (x264), High@L4.0, 5163 kbps avg, 0.104 bit/pixel
Аудио #1: русский: 48 kHz, AC3 Dolby Digital, 3/2 (L,C,R,l,r) + LFE ch, ~384.00 kbps avg | LE-Production |
Аудио #2: английский: 48 kHz, AC3 Dolby Digital, 3/2 (L,C,R,l,r) + LFE ch, ~384.00 kbps avg | Оригинал |

Перевод на русский: Максим Митин | Релиз от:

00 - Spark of Rebellion, Parts 1 & 2
01 - Droids in Distress
02 - Fighter Flight
03 - Rise of the Old Masters
Общее
Полное имя : star.wars.rebels.s01.1080p.web-dl.dd5.1.le-productionstar.wars.rebels.s01e02.droids.in.distress.1080p.web-dl.dd5.1.le-production.mkv
Формат : Matroska
Размер файла : 943 Мбайт
Продолжительность : 22 м.
Общий поток : 5930 Кбит/сек
Дата кодирования : UTC 2014-10-10 07:42:56
Программа кодирования : mkvmerge v7.1.0 ('Good Love') 64bit built on Jul 27 2014 13:06:55
Библиотека кодирования : libebml v1.3.0 + libmatroska v1.4.1

Видео
Идентификатор : 1
Формат : AVC
Формат/Информация : Advanced Video Codec
Профиль формата : High@L4.0
Параметр CABAC формата : Да
Параметр ReFrames формата : 4 кадры
Идентификатор кодека : V_MPEG4/ISO/AVC
Продолжительность : 22 м.
Битрейт : 5163 Кбит/сек
Ширина : 1920 пикс.
Высота : 1080 пикс.
Соотношение сторон : 16:9
Частота кадров : 23,976 кадр/сек
Цветовое пространство : YUV
Подвыборка цветности : 4:2:0
Битовая глубина : 8 бит
Тип развёртки : Прогрессивная
Бит/(Пиксели*Кадры) : 0.104
Размер потока : 802 Мбайт (85%)
Заголовок : LE-Production
Библиотека кодирования : x264 core 130 r2273 b3065e6
Настройки программы : cabac=1 / ref=1 / deblock=1:-1:-1 / analyse=0x3:0x3 / me=dia / subme=1 / psy=1 / psy_rd=1.00:0.10 / mixed_ref=0 / me_range=16 / chroma_me=1 / trellis=0 / 8x8dct=1 / cqm=0 / deadzone=21,11 / fast_pskip=1 / chroma_qp_offset=0 / threads=12 / lookahead_threads=2 / sliced_threads=0 / nr=0 / decimate=1 / interlaced=0 / bluray_compat=0 / constrained_intra=0 / bframes=3 / b_pyramid=2 / b_adapt=1 / b_bias=0 / direct=3 / weightb=1 / open_gop=0 / weightp=1 / keyint=250 / keyint_min=23 / scenecut=40 / intra_refresh=0 / rc=2pass / mbtree=0 / bitrate=5163 / ratetol=1.0 / qcomp=0.60 / qpmin=0 / qpmax=69 / qpstep=4 / cplxblur=20.0 / qblur=0.5 / ip_ratio=1.40 / pb_ratio=1.30 / aq=1:1.00
Язык : Russian

Аудио #1
Идентификатор : 2
Формат : AC-3
Формат/Информация : Audio Coding 3
Расширение режима : CM (complete main)
Идентификатор кодека : A_AC3
Продолжительность : 22 м.
Вид битрейта : Постоянный
Битрейт : 384 Кбит/сек
Канал(ы) : 6 канала(ов)
Расположение каналов : Front: L C R, Side: L R, LFE
Частота : 48,0 КГц
Битовая глубина : 16 бит
Метод сжатия : С потерями
Размер потока : 61,1 Мбайт (6%)
Заголовок : LE-Production (Тимиркан Сиюхов и Маргарита Щелкунова)
Язык : Russian

Аудио #2
Идентификатор : 3
Формат : AC-3
Формат/Информация : Audio Coding 3
Расширение режима : CM (complete main)
Идентификатор кодека : A_AC3
Продолжительность : 22 м.
Вид битрейта : Постоянный
Битрейт : 384 Кбит/сек
Канал(ы) : 6 канала(ов)
Расположение каналов : Front: L C R, Side: L R, LFE
Частота : 48,0 КГц
Битовая глубина : 16 бит
Метод сжатия : С потерями
Размер потока : 61,1 Мбайт (6%)
Язык : English






   Похожие торренты   Торрент   Размер 
В этой теме нет новых непрочитанных сообщений. Звездные войны: Повстанцы / Star Wars Rebels [01x00-05 из 16] (2014) WEB-DL 1080p | LE-Production

62 | 32

6.56 ГБ

В этой теме нет новых непрочитанных сообщений. Звездные войны: Повстанцы / Star Wars Rebels [01x00-05 из 16] (2014) WEB-DL 720p | LE-Production

22 | 11

5.36 ГБ

В этой теме нет новых непрочитанных сообщений. Звездные войны: Повстанцы / Star Wars Rebels [01x01-02 из (?) ] (2014) WEB-DL 1080p | LE-Production

541 | 23

2.78 ГБ

В этой теме нет новых непрочитанных сообщений. Звездные войны: Повстанцы / Star Wars Rebels [01x01-02 из (?) ] (2014) WEB-DL 720p | LE-Production

84 | 17

2.28 ГБ

В этой теме нет новых непрочитанных сообщений. Звездные Войны: Повстанцы / Star Wars Rebels [02x01-11 из 20] (2015) WEB-DLRip 720p | LE-Production

230 | 66

9.16 ГБ

В этой теме нет новых непрочитанных сообщений. Звездные Войны: Повстанцы / Star Wars Rebels [02x01-03 из 20] (2015) WEB-DLRip 720p | LE-Production

234 | 66

3 ГБ

В этой теме нет новых непрочитанных сообщений. Звездные Войны: Повстанцы / Star Wars Rebels [02x01-12 из 20] (2015) WEB-DLRip 720p | LE-Production

288 | 113

9.98 ГБ




Вы не можете начинать темы
Вы не можете отвечать на сообщения
Вы не можете редактировать свои сообщения
Вы не можете удалять свои сообщения
Вы не можете добавлять вложения

Перейти:  
Для Мосгорсуда, Роскомнадзора и рекламодателей: mosgorsud-torrent[собачка]yandex.ru
 Вход
ppkBB3cker v.2 © 2008-2014 @ PPK
[ Time : 0.044s | 17 Queries | GZIP : Off ]

cron