img image001 image001 image001 image001 image001 image001 image001 image001 image001 image001 image001 image001 image001 image001 image001

Planets Sun Sun Sun
Статистика раздачи
Автор: Nickolas3434 | Размер: 2.53 ГБ | Добавлен: 30 ноя 2014
Раздают: 148    Качают: 17
Скачать торрент
Скачать торрент
Описание торрента

СообщениеДобавлено: 30 ноя 2014 

Информация о фильме
Название: Лови волну!
Оригинальное название: Surf's Up
Год выхода: 2007
Жанр: мультфильм, комедия, семейный, спорт
Режиссер: Эш Браннон, Крис Бак
В ролях: Шайа ЛаБаф, Джефф Бриджес, Зои Дешанель, Джон Хидер, Джеймс Вудс, Дидрих Бадер, Марио Кантоне, Келли Слэйтер, Роб Мачадо, Сал Масикела
О фильме: Кто из нас не мечтает поддаться течению, насладиться ласковыми волнами или, в конце концов, покорить водную стихию, когда морская пучина проявляет свой дикий темперамент? Главный герой комедийного анимационного фильма – молодой и амбициозный пингвин Коди - как раз только и грезит тем, чтобы обуздать самую высокую волну на предстоящем величайшем соревновании по серфингу. Благодаря съемочной группе, которая неустанно следит за восходящей звездой Коди, мы проникаем за кулисы элитного спорта. И, когда на своем пути к славе Коди встречает некогда знаменитого, но ныне вышедшего в тираж сёрфингиста Гика (Джеф Бриджес), он пересматривает свои взгляды на победу и понимает, что истинный победитель не всегда тот, кто пришел первым. Поддержат ли Коди друзья?

Выпущено: Sony Pictures Animation
Файл
Качество: BDRip (AVC)
Видео: MPEG-4 AVC, 2440 Kбит/с, 1024x554, 23.976 кадр/с
Аудио: Русский, украинский, английский (AC3, 6 ch, 448 Кбит/с)
Продолжительность: 01:25:31
Перевод: Дублированный, авторский
Субтитры: Русские, английские
Аудио №1: Русский (AC3, 6 ch, 448 Кбит/с) - Дублированный
Аудио №2: Русский (AC3, 6 ch, 448 Кбит/с) - Авторский одноголосый (Королев)
Аудио №3: Украинский (AC3, 6 ch, 448 Кбит/с) - Дублированный
Аудио №:4 Английский (AC3, 6 ch, 448 Кбит/с)
Общее
Уникальный идентификатор : 197395168564808027836426590547884934361 (0x9480ED35C3BE0EA6A85BDA103CA884D9)
Полное имя : D:7Lovi.volnu.2007.x264.BDRip.(AVC).ExKinoRay.mkv
Формат : Matroska
Размер файла : 2,53 Гбайт
Продолжительность : 1 ч. 25 м.
Общий поток : 4232 Кбит/сек
Название фильма : Lovi.volnu.2007.x264.BDRip.(AVC).ExKinoRay
Дата кодирования : UTC 2014-11-28 15:07:39
Программа кодирования : mkvmerge v4.0.0 ('The Stars were mine') сборка от Jun 6 2010 16:18:42
Библиотека кодирования : libebml v1.0.0 + libmatroska v1.0.0
Видео
Идентификатор : 1
Формат : AVC
Формат/Информация : Advanced Video Codec
Профиль формата : High@L4.1
Параметр CABAC формата : Да
Параметр ReFrames формата : 8 кадров
Идентификатор кодека : V_MPEG4/ISO/AVC
Продолжительность : 1 ч. 25 м.
Битрейт : 2440 Кбит/сек
Ширина : 1024 пикс.
Высота : 554 пикс.
Соотношение сторон : 16:9
Частота кадров : 23,976 кадр/сек
Цветовое пространство : YUV
Подвыборка цветности : 4:2:0
Битовая глубина : 8 бит
Тип развёртки : Прогрессивная
Бит/(Пиксели*Кадры) : 0.179
Размер потока : 1,41 Гбайт (56%)
Заголовок : Rip by Enigma-Vladislav71
Библиотека кодирования : x264 core 129 r2245 bc13772
Настройки программы : cabac=1 / ref=8 / deblock=1:-2:-2 / analyse=0x3:0x133 / me=umh / subme=11 / psy=1 / psy_rd=1.00:0.00 / mixed_ref=1 / me_range=48 / chroma_me=1 / trellis=2 / 8x8dct=1 / cqm=0 / deadzone=21,11 / fast_pskip=0 / chroma_qp_offset=-2 / threads=3 / lookahead_threads=1 / sliced_threads=0 / nr=0 / decimate=0 / interlaced=0 / bluray_compat=0 / constrained_intra=0 / bframes=8 / b_pyramid=2 / b_adapt=2 / b_bias=0 / direct=3 / weightb=1 / open_gop=0 / weightp=2 / keyint=240 / keyint_min=23 / scenecut=40 / intra_refresh=0 / rc=2pass / mbtree=0 / bitrate=2440 / ratetol=1.0 / qcomp=0.60 / qpmin=10 / qpmax=51 / qpstep=4 / cplxblur=20.0 / qblur=0.5 / ip_ratio=1.40 / pb_ratio=1.30 / aq=2:1.00
Язык : English
Аудио #1
Идентификатор : 2
Формат : AC-3
Формат/Информация : Audio Coding 3
Расширение режима : CM (complete main)
Идентификатор кодека : A_AC3
Продолжительность : 1 ч. 25 м.
Вид битрейта : Постоянный
Битрейт : 448 Кбит/сек
Каналы : 6 каналов
Расположение каналов : Front: L C R, Side: L R, LFE
Частота : 48,0 КГц
Битовая глубина : 16 бит
Метод сжатия : С потерями
Размер потока : 274 Мбайт (11%)
Заголовок : Дублированный
Язык : Russian
Аудио #2
Идентификатор : 3
Формат : AC-3
Формат/Информация : Audio Coding 3
Расширение режима : CM (complete main)
Идентификатор кодека : A_AC3
Продолжительность : 1 ч. 25 м.
Вид битрейта : Постоянный
Битрейт : 448 Кбит/сек
Каналы : 6 каналов
Расположение каналов : Front: L C R, Side: L R, LFE
Частота : 48,0 КГц
Битовая глубина : 16 бит
Метод сжатия : С потерями
Размер потока : 274 Мбайт (11%)
Заголовок : Авторский одноголосый (Королев)
Язык : Russian
Аудио #3
Идентификатор : 4
Формат : AC-3
Формат/Информация : Audio Coding 3
Расширение режима : CM (complete main)
Идентификатор кодека : A_AC3
Продолжительность : 1 ч. 25 м.
Вид битрейта : Постоянный
Битрейт : 448 Кбит/сек
Каналы : 6 каналов
Расположение каналов : Front: L C R, Side: L R, LFE
Частота : 48,0 КГц
Битовая глубина : 16 бит
Метод сжатия : С потерями
Размер потока : 274 Мбайт (11%)
Заголовок : Дублированный украинский
Язык : Ukrainian
Аудио #4
Идентификатор : 5
Формат : AC-3
Формат/Информация : Audio Coding 3
Расширение режима : CM (complete main)
Идентификатор кодека : A_AC3
Продолжительность : 1 ч. 25 м.
Вид битрейта : Постоянный
Битрейт : 448 Кбит/сек
Каналы : 6 каналов
Расположение каналов : Front: L C R, Side: L R, LFE
Частота : 48,0 КГц
Битовая глубина : 16 бит
Метод сжатия : С потерями
Размер потока : 274 Мбайт (11%)
Заголовок : Английский
Язык : English
Текст #1
Идентификатор : 6
Формат : UTF-8
Идентификатор кодека : S_TEXT/UTF8
Идентификатор кодека/Информация : UTF-8 Plain Text
Язык : Russian
Текст #2
Идентификатор : 7
Формат : UTF-8
Идентификатор кодека : S_TEXT/UTF8
Идентификатор кодека/Информация : UTF-8 Plain Text
Язык : English
Меню
00:00:00.000 : en:Chapter 01
00:06:08.159 : en:Chapter 02
00:12:08.519 : en:Chapter 03
00:17:43.061 : en:Chapter 04
00:23:06.176 : en:Chapter 05
00:27:52.920 : en:Chapter 06
00:33:00.854 : en:Chapter 07
00:38:14.417 : en:Chapter 08
00:44:13.401 : en:Chapter 09
00:46:43.384 : en:Chapter 10
00:51:40.014 : en:Chapter 11
00:55:47.386 : en:Chapter 12
01:02:08.600 : en:Chapter 13
01:07:54.946 : en:Chapter 14
01:12:10.993 : en:Chapter 15
01:16:24.622 : en:Chapter 16



Релиз от:
Авторы релиза:



   Похожие торренты   Торрент   Размер 
В этой теме нет новых непрочитанных сообщений. Лови волну! / Surf's Up (2007) BDRip 1080p от ExKinoRay | D, A

31 | 6

8.08 ГБ

В этой теме нет новых непрочитанных сообщений. Лови волну! / Surf's Up (2007) BDRip от HQCLUB

139 | 15

1.46 ГБ

В этой теме нет новых непрочитанных сообщений. Лови волну! / Surf's Up (2007) BDRip 720 от SuperMin

110 | 8

4.37 ГБ

В этой теме нет новых непрочитанных сообщений. Лови волну! / Surf's Up (2007) BDRip 1080p

139 | 9

4.37 ГБ

В этой теме нет новых непрочитанных сообщений. Лови волну! / Surf's Up (2007) BDRip-AVC от HQCLUB | Лицензия

32 | 12

3.54 ГБ

В этой теме нет новых непрочитанных сообщений. Лови волну! / Surf's Up (2007) BDRip 720p от Freeisland

5 | 3

2.99 ГБ

В этой теме нет новых непрочитанных сообщений. Лови волну! / Surf's Up (2007) HDRip-AVC | D

202 | 19

697.93 МБ




Вы не можете начинать темы
Вы не можете отвечать на сообщения
Вы не можете редактировать свои сообщения
Вы не можете удалять свои сообщения
Вы не можете добавлять вложения

Перейти:  
Для Мосгорсуда, Роскомнадзора и рекламодателей: mosgorsud-torrent[собачка]yandex.ru
 Вход
ppkBB3cker v.2 © 2008-2014 @ PPK
[ Time : 0.074s | 15 Queries | GZIP : Off ]
CGP output time : 0.031s | 5 Queries | GZIP : Off

Торрент трекер RUTOR.IN, Не можете зайти на rutor.org? Какой новый адрес рутор? Какое зеркало рутор? Не работает rutor.org и зеркала? Тогда наш торрент специально для вас. Rutor.in неофициальное зеркало rutor. В случае если у Вас заблокирован rutor или вдруг Вы не можете на него зайти, то Вы без труда сможете скачать бесплатно и без рекламы последние новинки кино, игр, сериалов и прочего у нас, на Rutor.in. Не нужно использовать прокси, чтобы зайти на рутор, достаточно воспользоваться нашим ресурсом. Все новые фильмы, игры, сериалы, книги и музыка за 2013 и 2014 годы через торрент бесплатно. Скачивайте фильмы в хорошем качестве, игры для пк, xbox, playstation без регистрации. У нас вы найдете новые Зарубежные сериалы и Русские сериалы 2013, 2014, 2015 годов. Оставайтесь с нами, качайте любимые фильмы, игры, сериалы, книги и музыку.