img image001 image001 image001 image001 image001 image001 image001 image001 image001 image001 image001 image001 image001 image001 image001

Planets Sun Sun Sun
Статистика раздачи
Автор: Nickolas3434 | Размер: 6.86 ГБ | Добавлен: 03 дек 2014
Раздают: 256    Качают: 59
Скачать торрент
Скачать торрент
Описание торрента

СообщениеДобавлено: 03 дек 2014 


Большая игра / Волшебный футбол / Настольный футбол
Metegol



#77
Год выпуска: 2013
Страна: Испания, Аргентина, Индия, США (Jorge Estrada Mora Producciones, Plural + Jempsa, AtresMedia Cine, 100 Bares, Catmandu Entertainment, ...)
Жанр: Мультфильм, Приключения, Семейный, Спорт
Продолжительность: 1:46:38

Озвучка: Многоголосая закадровая (AlexFilm)

Режиссер: Хуан Хосе Кампанелла / Juan José Campanella

Роли озвучивали (на русском): Татьяна Манетина, Владимир Курдов, Михаил Суслов, Сергей Пономарёв, Роман Сопко, Константин Погодаев.
Перевод: Константин Кривоногов
Монтаж и сведение звука: Михаил Шорыгин



Описание: История Амадео, застенчивого мальчика с добрым сердцем, и его друзей — отважных футболистов, с помощью которых Амадео должен вернуть себе честь, достоинство и настоящую любовь. Это фильм о дружбе, верности и страсти, действие которого разворачивается на футбольном поле.



Премьера (мир): 18 июля 2013
Бюджет: $22 000 000
Кассовые сборы: $24 000 000




За исходный BDRemux спасибо Vlad85!
За русскую озвучку спасибо меценатам AlexFilm и HDClub!



Качество: BDRip (by Ash61)
Контейнер: MKV
Формат 3D: Half OverUnder / Вертикальная анаморфная стереопара
Порядок ракурсов: левый ракурс первый
Видео кодек: x264
Аудио кодек: AC3



Видео: AVC / 23,976 fps / 1920х1080p / ~7.6 Mbps

Аудио:
#1 - Русский / AC3 / 48 KHz / 16 bits / 5.1 ch / 640 Kbps (MVO - AlexFilm)
Отдельным файлом:
#2 - Испанский / DTS / 48 KHz / 24 bits / 5.1 ch / 768 Kbps (Original - BD 3D Remux)

Субтитры: внешние (SRT UTF-8) полные русские, английские, испанские (3 диалекта).

General
Unique ID : 226617688692635446542586399309469165429 (0xAA7CFAB0A89D85A385DA10FE64E9A775)
Complete name : E:Metegol(2013)3D-halfOU(Ash61)MVOMetegol(2013)3D-halfOU(Ash61)MVO.mkv
Format : Matroska
Format version : Version 2
File size : 6.29 GiB
Duration : 1h 46mn
Overall bit rate : 8 447 Kbps
Movie name : Большая игра / Волшебный футбол / Настольный футбол / Metegol (2013) 3D
Encoded date : UTC 2014-12-02 16:11:07
Writing application : mkvmerge v5.8.0 ('No Sleep / Pillow') built on Sep 2 2012 15:37:04
Writing library : libebml v1.2.3 + libmatroska v1.3.0

Video
ID : 1
Format : AVC
Format/Info : Advanced Video Codec
Format profile : High@L4.1
Format settings, CABAC : Yes
Format settings, ReFrames : 4 frames
Codec ID : V_MPEG4/ISO/AVC
Duration : 1h 46mn
Bit rate : 7 639 Kbps
Width : 1 920 pixels
Height : 1 080 pixels
Display aspect ratio : 16:9
Frame rate mode : Constant
Frame rate : 23.976 fps
Color space : YUV
Chroma subsampling : 4:2:0
Bit depth : 8 bits
Scan type : Progressive
Bits/(Pixel*Frame) : 0.154
Stream size : 5.69 GiB (90%)
Title : BDRip by Ash61
Writing library : x264 core 138 r2358 9e941d1
Encoding settings : cabac=1 / ref=4 / deblock=1:-3:-3 / analyse=0x3:0x113 / me=umh / subme=10 / psy=1 / psy_rd=1.00:0.15 / mixed_ref=1 / me_range=32 / chroma_me=1 / trellis=2 / 8x8dct=1 / cqm=0 / deadzone=21,11 / fast_pskip=1 / chroma_qp_offset=-3 / threads=12 / lookahead_threads=2 / sliced_threads=0 / nr=0 / decimate=1 / interlaced=0 / bluray_compat=0 / constrained_intra=0 / bframes=9 / b_pyramid=2 / b_adapt=2 / b_bias=0 / direct=3 / weightb=1 / open_gop=0 / weightp=2 / keyint=250 / keyint_min=23 / scenecut=40 / intra_refresh=0 / rc_lookahead=60 / rc=crf / mbtree=1 / crf=17.0 / qcomp=0.70 / qpmin=0 / qpmax=69 / qpstep=4 / vbv_maxrate=40000 / vbv_bufsize=30000 / crf_max=0.0 / nal_hrd=none / frame-packing=4 / ip_ratio=1.40 / aq=1:0.70
Language : Spanish
Default : Yes
Forced : No

Audio
ID : 2
Format : AC-3
Format/Info : Audio Coding 3
Mode extension : CM (complete main)
Format settings, Endianness : Big
Codec ID : A_AC3
Duration : 1h 46mn
Bit rate mode : Constant
Bit rate : 640 Kbps
Channel(s) : 6 channels
Channel positions : Front: L C R, Side: L R, LFE
Sampling rate : 48.0 KHz
Bit depth : 16 bits
Compression mode : Lossy
Stream size : 488 MiB (8%)
Title : Многоголосый закадровый - AlexFilm
Language : Russian
Default : Yes
Forced : No

Menu
00:00:00.000 : :1
00:04:15.711 : :2
00:13:07.745 : :3
00:22:28.805 : :4
00:27:48.083 : :5
00:34:20.806 : :6
00:39:25.445 : :7
00:44:32.710 : :8
00:50:44.331 : :9
00:55:13.351 : :10
00:59:43.579 : :11
01:05:22.001 : :12
01:07:09.858 : :13
01:10:19.631 : :14
01:13:17.309 : :15
01:19:24.591 : :16
01:24:44.496 : :17
01:28:25.716 : :18
01:34:16.609 : :19
01:36:38.417 : :20
















   Похожие торренты   Торрент   Размер 
В этой теме нет новых непрочитанных сообщений. Большая игра / Волшебный футбол / Настольный футбол / Metegol / Futbolin (2013) BDRip от New-Team | P | AlexFilm

144 | 42

742.94 МБ

В этой теме нет новых непрочитанных сообщений. Большая игра / Волшебный футбол / Настольный футбол / Metegol / Futbolin (2013) BDRip от New-Team | P | AlexFilm

427 | 70

1.45 ГБ

В этой теме нет новых непрочитанных сообщений. Большая игра (Волшебный футбол ) / Metegol (2013) BDRip 1080p от NNNB

359 | 23

7.76 ГБ

В этой теме нет новых непрочитанных сообщений. Волшебный футбол / Metegol / Futbolin (2013) BDRip 720p | P

245 | 18

5.34 ГБ

В этой теме нет новых непрочитанных сообщений. Волшебный футбол / Metegol / Futbolin (2013) HDRip | AlexFilm

1649 | 51

2.18 ГБ

В этой теме нет новых непрочитанных сообщений. Мафия: Игра на выживание / Survival Game (2015) BDRip 1080p от Ash61 | 3D-Video | halfOU

127 | 11

6.82 ГБ

В этой теме нет новых непрочитанных сообщений. Best of 3D (Vol. 1-9) (2013) BDRip 1080p от Ash61 | 3D-Video | halfOU

146 | 133

35.86 ГБ




Вы не можете начинать темы
Вы не можете отвечать на сообщения
Вы не можете редактировать свои сообщения
Вы не можете удалять свои сообщения
Вы не можете добавлять вложения

Перейти:  
Для Мосгорсуда, Роскомнадзора и рекламодателей: mosgorsud-torrent[собачка]yandex.ru
 Вход
ppkBB3cker v.2 © 2008-2014 @ PPK
[ Time : 0.044s | 16 Queries | GZIP : Off ]

cron