img image001 image001 image001 image001 image001 image001 image001 image001 image001 image001 image001 image001 image001 image001 image001

Planets Sun Sun Sun
Статистика раздачи
Автор: Nickolas3434 | Размер: 5.35 ГБ | Добавлен: 05 дек 2014
Раздают: 15    Качают: 10
Скачать торрент
Скачать торрент
Описание торрента

СообщениеДобавлено: 05 дек 2014 

Информация о фильме
Название: Робинзон Крузо: Предводитель пиратов
Оригинальное название: Selkirk, el verdadero Robinson Crusoe
Год выхода: 2011
Жанр: Мультфильм, приключения, семейный
Режиссер: Вальтер Турньер

О фильме:
Селкирк — непокорный, эгоистичный пират, штурман на английском камбузе. Он плавает по Южным морям в поисках сокровищ. После того как Капитан Буллок оставляет его на необитаемом острове и ему приходится учиться выживать в одиночку, его взгляды на мир меняются.


Страна: Уругвай, Аргентина, Чили
Студия: ANTEL, Maiz, Patagonik
Продолжительность: 01:16:15
Перевод: Дублированный

Файл
Кодек: MPEG-4 AVC
Качество: HDTV 1080i
Видео: 9093 Кбит/с, 1920x1080, 25.000 кадр/с
Звук: Русский (АС3, 6 ch, 448 Кбит/с)

Семпл


Общее
Идентификатор : 20 (0x14)
Полное имя : Robinzon.Kruzo.2011.HDTV(1080i).MediaClub.ts
Формат : MPEG-TS
Размер файла : 5,35 Гбайт
Продолжительность : 1 ч. 16 м.
Режим общего битрейта : Переменный
Общий поток : 10,0 Мбит/сек

Видео
Идентификатор : 302 (0x12E)
Идентификатор меню : 20102 (0x4E86)
Формат : AVC
Формат/Информация : Advanced Video Codec
Профиль формата : High@L4.0
Параметр CABAC формата : Да
Параметр ReFrames формата : 4 кадра
Идентификатор кодека : 27
Продолжительность : 1 ч. 16 м.
Битрейт : 9093 Кбит/сек
Ширина : 1920 пикселей
Высота : 1080 пикселей
Соотношение сторон : 16:9
Частота кадров : 25,000 кадров/сек
Стандарт вещания : Component
Цветовое пространство : YUV
Субдискретизация насыщенности : 4:2:0
Битовая глубина : 8 бит
Тип развёртки : Чересстрочная
Порядок развёртки : Верхнее поле первое
Бит/(Пиксели*Кадры) : 0.175
Размер потока : 4,84 Гбайт (91%)
Основные цвета : BT.709
Характеристики трансфера : BT.709
Коэффициенты матрицы : BT.709

Аудио
Идентификатор : 402 (0x192)
Идентификатор меню : 20102 (0x4E86)
Формат : AC-3
Формат/Информация : Audio Coding 3
Расширение режима : CM (complete main)
Параметр Endianness формата : Big
Идентификатор кодека : 6
Продолжительность : 1 ч. 16 м.
Вид битрейта : Постоянный
Битрейт : 448 Кбит/сек
Каналы : 6 каналов
Расположение каналов : Front: L C R, Side: L R, LFE
Частота : 48,0 КГц
Битовая глубина : 16 бит
Метод сжатия : С потерями
Задержка видео : -849 мс.
Размер потока : 244 Мбайт (4%)
Язык : Russian
Язык, дополнительно : Clean effects

Меню
Идентификатор : 2002 (0x7D2)
Идентификатор меню : 20102 (0x4E86)
Продолжительность : 1 ч. 16 м.
Список : 302 (0x12E) (AVC) / 402 (0x192) (AC-3, Russian)
Язык : / Russian


Релиз от:



   Похожие торренты   Торрент   Размер 
В этой теме нет новых непрочитанных сообщений. Робинзон Крузо: Предводитель пиратов / Selkirk, el verdadero Robinson Crusoe (2011) HDTVRip-AVC от MediaClub | D

71 | 13

1.7 ГБ

В этой теме нет новых непрочитанных сообщений. Робинзон Крузо: Предводитель пиратов / Selkirk, el verdadero Robinson Crusoe (2011) HDTVRip 720p от MediaClub | D

51 | 8

2.61 ГБ

В этой теме нет новых непрочитанных сообщений. Робинзон Крузо. Предводитель пиратов / Selkirk, El Verdadero Robinson Crusoe (2011) DVDRip | D | Лицензия

2 | 3

703.46 МБ

В этой теме нет новых непрочитанных сообщений. Робинзон Крузо. Предводитель пиратов / Selkirk, El Verdadero Robinson Crusoe (2012) DVD5 от New-Team | D | Лицензия

39 | 5

3.51 ГБ

В этой теме нет новых непрочитанных сообщений. Робинзон Крузо / Robinson Crusoe (1997) DVDRip

296 | 11

1.36 ГБ

В этой теме нет новых непрочитанных сообщений. Робинзон Крузо / Robinson Crusoe (2003) DVDRip | P

73 | 4

1.37 ГБ

В этой теме нет новых непрочитанных сообщений. Робинзон Крузо / Robinson Crusoe (2003) DVDRip

52 | 8

2.74 ГБ




Вы не можете начинать темы
Вы не можете отвечать на сообщения
Вы не можете редактировать свои сообщения
Вы не можете удалять свои сообщения
Вы не можете добавлять вложения

Перейти:  
Для Мосгорсуда, Роскомнадзора и рекламодателей: mosgorsud-torrent[собачка]yandex.ru
 Вход
ppkBB3cker v.2 © 2008-2014 @ PPK
[ Time : 0.039s | 16 Queries | GZIP : Off ]

Торрент трекер RUTOR.IN, Не можете зайти на rutor.org? Какой новый адрес рутор? Какое зеркало рутор? Не работает rutor.org и зеркала? Тогда наш торрент специально для вас. Rutor.in неофициальное зеркало rutor. В случае если у Вас заблокирован rutor или вдруг Вы не можете на него зайти, то Вы без труда сможете скачать бесплатно и без рекламы последние новинки кино, игр, сериалов и прочего у нас, на Rutor.in. Не нужно использовать прокси, чтобы зайти на рутор, достаточно воспользоваться нашим ресурсом. Все новые фильмы, игры, сериалы, книги и музыка за 2013 и 2014 годы через торрент бесплатно. Скачивайте фильмы в хорошем качестве, игры для пк, xbox, playstation без регистрации. У нас вы найдете новые Зарубежные сериалы и Русские сериалы 2013, 2014, 2015 годов. Оставайтесь с нами, качайте любимые фильмы, игры, сериалы, книги и музыку.
cron