img image001 image001 image001 image001 image001 image001 image001 image001 image001 image001 image001 image001 image001 image001 image001

Planets Sun Sun Sun
Статистика раздачи
Автор: Nickolas3434 | Размер: 2.25 ГБ | Добавлен: 07 дек 2014
Раздают: 322    Качают: 13
Скачать торрент
Скачать торрент
Описание торрента

СообщениеДобавлено: 07 дек 2014 

Год выпуска: 2003
Страна: Испания / Pasozebra Produccions
Жанр: мультфильм
Продолжительность: 00:06:00 / серия
Перевод: Профессиональный (полное дублирование)
Субтитры: нет


Режиссер: Рауль Диез


Озвучивали: неизвестно
Описание: Этот смешной пародийный сериал повествует о приключениях в киностудии на съемочной площадке. Сиро и Бонзо, два забавных актера этой очень невезучей киностудии с непревзойденным старанием пытаются снять незабываемый киношедевр. Ковбои, пираты, инопланетяне и даже снежный человек. Каждый эпизод заставит вас рассмеяться над трогательными пародиями на широкоизвестные киноштампы.



Качество: DVDRip / DVD5 R5 - лицензионные диски от «New Dream media»
Формат: AVI
Видео 1: 704x528 (1.375:1), 25.000 fps, XviD ~ 1800 kbps avg, 0.194 bit/pixel | 01-13 серии
Видео 2: 704x512 (4:3), 25.000 fps, XviD ~ 1800 kbps avg, 0.200 bit/pixel | 14-26 серии
Аудио: 48 kHz, Dolby AC3 2.0 192 kbps, русский
Дополнительно: В сети имеется крайне скудное описание мультсериала. Ссылку на IMDB я так и не нашел. Имя режиссера на оригинальном и английском языках тоже недоступно. У кого есть необходимая информация, прошу поделиться. Различные технические данные рипов с первого и второго дисков вызваны различием исходников. Первый семпл в раздаче относится к 01-13 сериям, второй - к 14-26 сериям.
Релиз от:
Короли экрана
01. Пастырь
02. Сверчок
03. Король
04. Сантехника
05. Без страха
06. Принцесса
07. Священная корова
08. Безопасность
09. Пираты
10. Стоматолог
11. Пятно
12. Луна
13. Остров
Съемки в разгаре
14. Снежный человек
15. Дракула
16. Поезд
17. Мумия
18. Малыш
19. Цветочек
20. Золотые яйца
21. Обморок
22. Франкенштейн
23. Оазис
24. Пожар
25. Гуд
26. Детектив

Внимание! Раздача ведётся путём добавления новых серий; при каждом добавлении создаётся новый торрент-файл. Чтобы начать докачку новой серии, пользователям необходимо сделать следующее:
(1) остановить скачивание;
(2) удалить старый торрент-файл у себя из клиента (старые серии удалять не надо);
(3) скачать новый торрент-файл и запустить его у себя в клиенте вместо старого, при этом указать клиенту путь в старую папку куда и должно происходить скачивание новых серий.
Ваш клиент при этом должен произвести хеширование (проверку) старой папки (если он не производит проверку сам – помогите ему сделать это), и будет докачивать только те серии которых у вас ещё нет. Старые серии при этом не удаляются, а продолжают раздаваться!
Если вы уже удалили старые серии, то предотвратить повторную закачку старых серий можно, отжав галочку в соответствующих местах при запуске нового торрент-файла. Желательно старые серии не удалять как можно дольше, чтобы релизёр не столько продолжал раздавать старые серии, а смог сконцентрироваться на новых.

General
Format : AVI
Format/Info : Audio Video Interleave
File size : 86.6 MiB
Duration : 6mn 3s
Overall bit rate : 2 001 Kbps
Writing application : VirtualDubModRus 1.5.10.2 (build 2542/release)
Writing library : VirtualDubMod build 2542/release
Video
ID : 0
Format : MPEG-4 Visual
Format profile : Advanced Simple@L5
Format settings, BVOP : 1
Format settings, QPel : No
Format settings, GMC : No warppoints
Format settings, Matrix : Custom
Codec ID : XVID
Codec ID/Hint : XviD
Duration : 6mn 3s
Bit rate : 1 799 Kbps
Width : 704 pixels
Height : 528 pixels
Display aspect ratio : 4:3
Frame rate : 25.000 fps
Color space : YUV
Chroma subsampling : 4:2:0
Bit depth : 8 bits
Scan type : Progressive
Compression mode : Lossy
Bits/(Pixel*Frame) : 0.194
Stream size : 77.9 MiB (90%)
Writing library : XviD 73
Audio
ID : 1
Format : AC-3
Format/Info : Audio Coding 3
Mode extension : CM (complete main)
Format settings, Endianness : Big
Codec ID : 2000
Duration : 6mn 2s
Bit rate mode : Constant
Bit rate : 192 Kbps
Channel(s) : 2 channels
Channel positions : Front: L R
Sampling rate : 48.0 KHz
Bit depth : 16 bits
Compression mode : Lossy
Stream size : 8.31 MiB (10%)
Alignment : Split accross interleaves
Interleave, duration : 40 ms (1.00 video frame)
Interleave, preload duration : 500 ms

General
Format : AVI
Format/Info : Audio Video Interleave
File size : 87.5 MiB
Duration : 6mn 6s
Overall bit rate : 2 002 Kbps
Writing application : VirtualDubModRus 1.5.10.2 (build 2542/release)
Writing library : VirtualDubMod build 2542/release
Video
ID : 0
Format : MPEG-4 Visual
Format profile : Advanced Simple@L5
Format settings, BVOP : 1
Format settings, QPel : No
Format settings, GMC : No warppoints
Format settings, Matrix : Custom
Codec ID : XVID
Codec ID/Hint : XviD
Duration : 6mn 6s
Bit rate : 1 800 Kbps
Width : 704 pixels
Height : 512 pixels
Display aspect ratio : 1.375
Frame rate : 25.000 fps
Color space : YUV
Chroma subsampling : 4:2:0
Bit depth : 8 bits
Scan type : Progressive
Compression mode : Lossy
Bits/(Pixel*Frame) : 0.200
Stream size : 78.6 MiB (90%)
Writing library : XviD 73
Audio
ID : 1
Format : AC-3
Format/Info : Audio Coding 3
Mode extension : CM (complete main)
Format settings, Endianness : Big
Codec ID : 2000
Duration : 6mn 6s
Bit rate mode : Constant
Bit rate : 192 Kbps
Channel(s) : 2 channels
Channel positions : Front: L R
Sampling rate : 48.0 KHz
Bit depth : 16 bits
Compression mode : Lossy
Stream size : 8.39 MiB (10%)
Alignment : Split accross interleaves
Interleave, duration : 40 ms (1.00 video frame)
Interleave, preload duration : 500 ms







   Похожие торренты   Торрент   Размер 
В этой теме нет новых непрочитанных сообщений. Ник и Босс уделывают Голливуд / Los Nimbos [01-26 из ?] (2003) DVDRip-AVC от New-Team | лицензия

12 | 5

2.21 ГБ

В этой теме нет новых непрочитанных сообщений. Ник и Босс уделывают Голливуд / Los Nimbos [01-26 из ?] (2003) 2xDVD5 от New-Team | D | Лицензия

0 | 2

6.43 ГБ

В этой теме нет новых непрочитанных сообщений. Большой Босс / The Boss (2016) BDRip-AVC от New-Team | Театральная версия | Лицензия

61 | 16

746.09 МБ

В этой теме нет новых непрочитанных сообщений. Большой Босс / The Boss (2016) BDRip-AVC от New-Team | Театральная версия | Лицензия

39 | 15

2.18 ГБ

В этой теме нет новых непрочитанных сообщений. Большой Босс / The Boss (2016) BDRip-AVC от New-Team | Театральная версия | Лицензия

225 | 46

1.46 ГБ

В этой теме нет новых непрочитанных сообщений. Мой босс, мой герой 2 / Мой босс, мой учитель / My Boss My Teacher (2006) DVDRip | L1

0 | 2

2.06 ГБ

В этой теме нет новых непрочитанных сообщений. Мой босс, мой герой 2 / Мой босс, мой учитель / My Boss My Teacher / Twosabu ilchae (2006) DVDRip | L1

2 | 1

1.54 ГБ




Вы не можете начинать темы
Вы не можете отвечать на сообщения
Вы не можете редактировать свои сообщения
Вы не можете удалять свои сообщения
Вы не можете добавлять вложения

Перейти:  
Для Мосгорсуда, Роскомнадзора и рекламодателей: mosgorsud-torrent[собачка]yandex.ru
 Вход
ppkBB3cker v.2 © 2008-2014 @ PPK
[ Time : 0.028s | 15 Queries | GZIP : Off ]

Торрент трекер RUTOR.IN, Не можете зайти на rutor.org? Какой новый адрес рутор? Какое зеркало рутор? Не работает rutor.org и зеркала? Тогда наш торрент специально для вас. Rutor.in неофициальное зеркало rutor. В случае если у Вас заблокирован rutor или вдруг Вы не можете на него зайти, то Вы без труда сможете скачать бесплатно и без рекламы последние новинки кино, игр, сериалов и прочего у нас, на Rutor.in. Не нужно использовать прокси, чтобы зайти на рутор, достаточно воспользоваться нашим ресурсом. Все новые фильмы, игры, сериалы, книги и музыка за 2013 и 2014 годы через торрент бесплатно. Скачивайте фильмы в хорошем качестве, игры для пк, xbox, playstation без регистрации. У нас вы найдете новые Зарубежные сериалы и Русские сериалы 2013, 2014, 2015 годов. Оставайтесь с нами, качайте любимые фильмы, игры, сериалы, книги и музыку.