img image001 image001 image001 image001 image001 image001 image001 image001 image001 image001 image001 image001 image001 image001 image001

Planets Sun Sun Sun
Статистика раздачи
Автор: Nickolas3434 | Размер: 2.21 ГБ | Добавлен: 07 дек 2014
Раздают: 12    Качают: 5
Скачать торрент
Скачать торрент
Описание торрента

СообщениеДобавлено: 07 дек 2014 

Год выпуска: 2003
Страна: Испания / Pasozebra Produccions
Жанр: мультфильм
Продолжительность: 00:06:00 / серия
Перевод: Профессиональный (полное дублирование)
Субтитры: нет


Режиссер: Рауль Диез


Озвучивали: неизвестно
Описание: Этот смешной пародийный сериал повествует о приключениях в киностудии на съемочной площадке. Сиро и Бонзо, два забавных актера этой очень невезучей киностудии с непревзойденным старанием пытаются снять незабываемый киношедевр. Ковбои, пираты, инопланетяне и даже снежный человек. Каждый эпизод заставит вас рассмеяться над трогательными пародиями на широкоизвестные киноштампы.



Качество: DVDRip-AVC / DVD5 R5 - лицензионные диски от «New Dream media»
Формат: MKV
Видео 1: 712x574@764x574 (4:3), 25.000 fps, MPEG-4 AVC ~ 1808 kbps avg, 0.177 bit/pixel | 01-13 серии
Видео 2: 712x560@762x560 (1.36:1), 25.000 fps, MPEG-4 AVC ~ 1808 kbps avg, 0.181 bit/pixel | 14-26 серии
Аудио: 48 kHz, Dolby AC3 2.0 192 kbps, русский
Дополнительно: В сети имеется крайне скудное описание мультсериала. Ссылку на IMDB я так и не нашел. Имя режиссера на оригинальном и английском языках тоже недоступно. У кого есть необходимая информация, прошу поделиться. Различные технические данные рипов с первого и второго дисков вызваны различием исходников. Первый семпл в раздаче относится к 01-13 сериям, второй - к 14-26 сериям.
Релиз от:
Короли экрана
01. Пастырь
02. Сверчок
03. Король
04. Сантехника
05. Без страха
06. Принцесса
07. Священная корова
08. Безопасность
09. Пираты
10. Стоматолог
11. Пятно
12. Луна
13. Остров
Съемки в разгаре
14. Снежный человек
15. Дракула
16. Поезд
17. Мумия
18. Малыш
19. Цветочек
20. Золотые яйца
21. Обморок
22. Франкенштейн
23. Оазис
24. Пожар
25. Гуд
26. Детектив

Внимание! Раздача ведётся путём добавления новых серий; при каждом добавлении создаётся новый торрент-файл. Чтобы начать докачку новой серии, пользователям необходимо сделать следующее:
(1) остановить скачивание;
(2) удалить старый торрент-файл у себя из клиента (старые серии удалять не надо);
(3) скачать новый торрент-файл и запустить его у себя в клиенте вместо старого, при этом указать клиенту путь в старую папку куда и должно происходить скачивание новых серий.
Ваш клиент при этом должен произвести хеширование (проверку) старой папки (если он не производит проверку сам – помогите ему сделать это), и будет докачивать только те серии которых у вас ещё нет. Старые серии при этом не удаляются, а продолжают раздаваться!
Если вы уже удалили старые серии, то предотвратить повторную закачку старых серий можно, отжав галочку в соответствующих местах при запуске нового торрент-файла. Желательно старые серии не удалять как можно дольше, чтобы релизёр не столько продолжал раздавать старые серии, а смог сконцентрироваться на новых.

General
Format : Matroska
Format version : Version 4 / Version 2
File size : 88.0 MiB
Duration : 6mn 8s
Overall bit rate : 2 004 Kbps
Encoded date : UTC 2014-12-06 09:23:55
Writing application : mkvmerge v7.2.0 ('On Every Street') 64bit built on Sep 13 2014 15:52:10
Writing library : libebml v1.3.0 + libmatroska v1.4.1
DURATION : 00:06:07.968000000
NUMBER_OF_FRAMES : 11499
NUMBER_OF_BYTES : 8831232
_STATISTICS_WRITING_APP : mkvmerge v7.2.0 ('On Every Street') 64bit built on Sep 13 2014 15:52:10
_STATISTICS_WRITING_DATE_UTC : 2014-12-06 09:23:55
_STATISTICS_TAGS : BPS DURATION NUMBER_OF_FRAMES NUMBER_OF_BYTES
Video
ID : 1
Format : AVC
Format/Info : Advanced Video Codec
Format profile : High@L4.1
Format settings, CABAC : Yes
Format settings, ReFrames : 8 frames
Codec ID : V_MPEG4/ISO/AVC
Duration : 6mn 8s
Bit rate : 1 808 Kbps
Width : 712 pixels
Height : 574 pixels
Display aspect ratio : 4:3
Original display aspect ratio : 4:3
Frame rate mode : Constant
Frame rate : 25.000 fps
Color space : YUV
Chroma subsampling : 4:2:0
Bit depth : 8 bits
Scan type : Progressive
Bits/(Pixel*Frame) : 0.177
Stream size : 77.8 MiB (88%)
Writing library : x264 core 138 r2356 a1d3d17
Encoding settings : cabac=1 / ref=8 / deblock=1:-2:-1 / analyse=0x3:0x113 / me=umh / subme=10 / psy=1 / psy_rd=1.00:0.05 / mixed_ref=1 / me_range=32 / chroma_me=1 / trellis=2 / 8x8dct=1 / cqm=0 / deadzone=21,11 / fast_pskip=0 / chroma_qp_offset=-3 / threads=9 / lookahead_threads=1 / sliced_threads=0 / nr=0 / decimate=0 / interlaced=0 / bluray_compat=0 / constrained_intra=0 / bframes=8 / b_pyramid=2 / b_adapt=2 / b_bias=0 / direct=3 / weightb=1 / open_gop=0 / weightp=2 / keyint=250 / keyint_min=25 / scenecut=40 / intra_refresh=0 / rc=2pass / mbtree=0 / bitrate=1808 / ratetol=1.0 / qcomp=0.60 / qpmin=0 / qpmax=69 / qpstep=4 / cplxblur=20.0 / qblur=0.5 / ip_ratio=1.40 / pb_ratio=1.30 / aq=1:1.00
Language : Spanish
Default : Yes
Forced : No
DURATION : 00:06:08.160000000
NUMBER_OF_FRAMES : 9204
NUMBER_OF_BYTES : 83310308
_STATISTICS_WRITING_APP : mkvmerge v7.2.0 ('On Every Street') 64bit built on Sep 13 2014 15:52:10
_STATISTICS_WRITING_DATE_UTC : 2014-12-06 09:23:55
_STATISTICS_TAGS : BPS DURATION NUMBER_OF_FRAMES NUMBER_OF_BYTES
Audio
ID : 2
Format : AC-3
Format/Info : Audio Coding 3
Mode extension : CM (complete main)
Format settings, Endianness : Big
Codec ID : A_AC3
Duration : 6mn 8s
Bit rate mode : Constant
Bit rate : 192 Kbps
Channel(s) : 2 channels
Channel positions : Front: L R
Sampling rate : 48.0 KHz
Bit depth : 16 bits
Compression mode : Lossy
Stream size : 8.43 MiB (10%)
Language : Russian
Default : Yes
Forced : No

File size : 87.6 MiB
Duration : 6mn 6s
Overall bit rate : 2 004 Kbps
Encoded date : UTC 2014-12-06 09:38:13
Writing application : mkvmerge v7.2.0 ('On Every Street') 64bit built on Sep 13 2014 15:52:10
Writing library : libebml v1.3.0 + libmatroska v1.4.1
DURATION : 00:06:06.400000000
NUMBER_OF_FRAMES : 11450
NUMBER_OF_BYTES : 8793600
_STATISTICS_WRITING_APP : mkvmerge v7.2.0 ('On Every Street') 64bit built on Sep 13 2014 15:52:10
_STATISTICS_WRITING_DATE_UTC : 2014-12-06 09:38:13
_STATISTICS_TAGS : BPS DURATION NUMBER_OF_FRAMES NUMBER_OF_BYTES
Video
ID : 1
Format : AVC
Format/Info : Advanced Video Codec
Format profile : High@L4.1
Format settings, CABAC : Yes
Format settings, ReFrames : 8 frames
Codec ID : V_MPEG4/ISO/AVC
Duration : 6mn 6s
Bit rate : 1 808 Kbps
Width : 712 pixels
Height : 560 pixels
Display aspect ratio : 4:3
Original display aspect ratio : 4:3
Frame rate mode : Constant
Frame rate : 25.000 fps
Color space : YUV
Chroma subsampling : 4:2:0
Bit depth : 8 bits
Scan type : Progressive
Bits/(Pixel*Frame) : 0.181
Stream size : 77.4 MiB (88%)
Writing library : x264 core 138 r2356 a1d3d17
Encoding settings : cabac=1 / ref=8 / deblock=1:-2:-1 / analyse=0x3:0x113 / me=umh / subme=10 / psy=1 / psy_rd=1.00:0.05 / mixed_ref=1 / me_range=32 / chroma_me=1 / trellis=2 / 8x8dct=1 / cqm=0 / deadzone=21,11 / fast_pskip=0 / chroma_qp_offset=-3 / threads=9 / lookahead_threads=1 / sliced_threads=0 / nr=0 / decimate=0 / interlaced=0 / bluray_compat=0 / constrained_intra=0 / bframes=8 / b_pyramid=2 / b_adapt=2 / b_bias=0 / direct=3 / weightb=1 / open_gop=0 / weightp=2 / keyint=250 / keyint_min=25 / scenecut=40 / intra_refresh=0 / rc=2pass / mbtree=0 / bitrate=1808 / ratetol=1.0 / qcomp=0.60 / qpmin=0 / qpmax=69 / qpstep=4 / cplxblur=20.0 / qblur=0.5 / ip_ratio=1.40 / pb_ratio=1.30 / aq=1:1.00
Language : Spanish
Default : Yes
Forced : No
DURATION : 00:06:06.560000000
NUMBER_OF_FRAMES : 9164
NUMBER_OF_BYTES : 82928986
_STATISTICS_WRITING_APP : mkvmerge v7.2.0 ('On Every Street') 64bit built on Sep 13 2014 15:52:10
_STATISTICS_WRITING_DATE_UTC : 2014-12-06 09:38:13
_STATISTICS_TAGS : BPS DURATION NUMBER_OF_FRAMES NUMBER_OF_BYTES
Audio
ID : 2
Format : AC-3
Format/Info : Audio Coding 3
Mode extension : CM (complete main)
Format settings, Endianness : Big
Codec ID : A_AC3
Duration : 6mn 6s
Bit rate mode : Constant
Bit rate : 192 Kbps
Channel(s) : 2 channels
Channel positions : Front: L R
Sampling rate : 48.0 KHz
Bit depth : 16 bits
Compression mode : Lossy
Stream size : 8.39 MiB (10%)
Language : Russian
Default : Yes
Forced : No







   Похожие торренты   Торрент   Размер 
В этой теме нет новых непрочитанных сообщений. Ник и Босс уделывают Голливуд / Los Nimbos [01-26 из ?] (2003) DVDRip от New-Team | лицензия

322 | 13

2.25 ГБ

В этой теме нет новых непрочитанных сообщений. Ник и Босс уделывают Голливуд / Los Nimbos [01-26 из ?] (2003) 2xDVD5 от New-Team | D | Лицензия

0 | 2

6.43 ГБ

В этой теме нет новых непрочитанных сообщений. Босс-молокосос / The Boss Baby (2017) BDRip-AVC от New-Team | Лицензия

33 | 7

745.58 МБ

В этой теме нет новых непрочитанных сообщений. Босс-молокосос / The Boss Baby (2017) BDRip-AVC от New-Team | Лицензия

235 | 8

1.49 ГБ

В этой теме нет новых непрочитанных сообщений. Босс-молокосос / The Boss Baby (2017) BDRip-AVC от New-Team | Лицензия

176 | 5

2.15 ГБ

В этой теме нет новых непрочитанных сообщений. Большой Босс / The Boss (2016) BDRip-AVC от New-Team | Театральная версия | Лицензия

210 | 38

1.46 ГБ

В этой теме нет новых непрочитанных сообщений. Большой Босс / The Boss (2016) BDRip-AVC от New-Team | Театральная версия | Лицензия

19 | 0

746.09 МБ




Вы не можете начинать темы
Вы не можете отвечать на сообщения
Вы не можете редактировать свои сообщения
Вы не можете удалять свои сообщения
Вы не можете добавлять вложения

Перейти:  
Для Мосгорсуда, Роскомнадзора и рекламодателей: mosgorsud-torrent[собачка]yandex.ru
 Вход
ppkBB3cker v.2 © 2008-2014 @ PPK
[ Time : 0.054s | 16 Queries | GZIP : Off ]

cron