img image001 image001 image001 image001 image001 image001 image001 image001 image001 image001 image001 image001 image001 image001 image001

Planets Sun Sun Sun
Статистика раздачи
Автор: Nickolas3434 | Размер: 6.12 ГБ | Добавлен: 08 дек 2014
Раздают: 195    Качают: 31
Скачать торрент
Скачать торрент
Описание торрента

СообщениеДобавлено: 08 дек 2014 


Страна: США
Производство: DHX Media, Wildbrain Entertainment
Жанр: Мультсериал, детский, семейный, приключения
Год выпуска: 2013
Продолжительность: 22 х ~ 00:24:00
Перевод: Дублированный (Невафильм)
Оригинальная аудиодорожка: Английская
Режиссер: Джордж Эвелин, Денис Морелла
Описание: На Диком Западе есть маленький уютный городок, где всегда светит солнце! Им управляет мудрая и справедливая кошечка — Шериф Келли. Ее заместитель и правая рука, дятел Клювик, а также верный товарищ, кактус Тоби, помогают Келли сохранять мир и порядок в городе. В каждой серии веселую команду ждут увлекательные приключения, невероятные события и сложные испытания. А если дела плохи, они поют веселую песенку, чтобы поднять настроение друг другу и всем вокруг!

Исходник: DVD9 R2
Тип релиза: DVDRip
Контейнер: AVI
Видео: 720x400 (1.80:1), 23.976 fps, XviD ~1062 kbps avg, 0.15 bit/pixel
Аудио 1: 48 kHz, AC3 Dolby Digital, 2/0 (L,R) ch, ~192 kbps (русский)
Аудио 2: 48 kHz, AC3 Dolby Digital, 2/0 (L,R) ch, ~192 kbps (английский)
s1e01. Ограбление + Дэн и Дасти ссорятся (Train Bandits + A Dirty Dusty Apology).
s1e02. Подкова на счастье + Самородок Келли (Horseshoe Peck + Callie's Gold Nugget).
s1e03. Трэвис-проныра + Тоби притворяется (Tricky Trouble + Toby's Untrue Achoo!).
s1e04. Замените Арчи + Хитрая шахта (Stagecoach Stand-Ins + Gold Mine Mix-Up)
s1e05. Противный вредный грызун + Куда угнали скот (The Pesky Kangaroo Rat + Cattle Overdrive)
s1e06. Грустный Лучик + Клювик главный (Sparky's Rival + Jail Crazy)
s1e07. Прыщ на носу + Клювик извиняется (Toby Gets Nosy + Peck Takes It Back).
s1e08. Лучику везёт + Клюв кривой (Sparky's Lucky Day + Peck's Bent Beak).
s1e09. Тоби-пастух + Голубые сойки (Toby the Cowsitter + Callie's Blue Jay Blues).
s1e10. Клювик любит Клементину + Лассо, вернись (Peck's Darling, Clementine + Lasso Come Home).
s1e11. Макоронный смерч + Драма Присциллы (Twist and Shout + Calamity Priscilla)
s1e12. Король Скунс + Сенсационная новость Эбигейл (King Stinky + Abigail's Extra Big Story)
s1e13. Чудо в перьях + Бодрые гонки (Horsefeathers + My Brother's Sleeper).
s1e14. Келли мы спасём + Клювик и орешки (Callie Asks for Help + Peck's Trail Mix Mix Up).
s1e15. Пропала наша птичка + Новый танец Келли (Priscilla's Lost Love Bird + Callie's Cowgirl Twirl).
s1e16. Мнимый вор + Золото (The Pie Thief + Fool for Gold)
s1e17. Клювик, Тоби и пряжа + Наш фермер Денди (Peck and Toby's Big Yarn + My Fair Stinky).
s1e18. Новые друзья + Тоби-репортёр (Parroting Pedro + Toby Gets the Scoop)
s1e19. Солнце, не свети + Жуткие жуки (Here Comes the Sun + Bug Trouble).
s1e20. Усатый Тоби + Чили без обмана (Moustache Toby + Doc's Cheatin' Chili)
s1e21. Колючий друг + Чудище в пещере (The Prickly Pair + Crystal Cave Caper)
s1e22.Тоби не сдаётся + Наш Клювик и пустыня (Toby Braves the Bully + The Tumbling Tumbleweed)
Общее
Полное имя : D:ААА2Шериф Келли и Дикий Запад1 серия.avi
Формат : AVI
Формат/Информация : Audio Video Interleave
Размер файла : 285 Мбайт
Продолжительность : 24 м.
Общий поток : 1652 Кбит/сек
Программа кодирования : VirtualDubMod 1.5.10.2 (build 2540/release)
Библиотека кодирования : VirtualDubMod build 2540/release
Видео
Идентификатор : 0
Формат : MPEG-4 Visual
Профиль формата : Advanced Simple@L5
Параметр BVOP формата : 2
Параметр QPel формата : Нет
Параметр GMC формата : Без точки перехода
Параметр матрицы формата : Default (MPEG)
Режим смешивания : Сжатый битовый поток
Идентификатор кодека : XVID
Идентификатор кодека/Подсказка : XviD
Продолжительность : 24 м.
Битрейт : 1063 Кбит/сек
Ширина : 720 пикселей
Высота : 400 пикселей
Соотношение сторон : 16:9
Частота кадров : 23,976 кадра/сек
Цветовое пространство : YUV
Субдискретизация насыщенности : 4:2:0
Битовая глубина : 8 бит
Тип развёртки : Прогрессивная
Метод сжатия : С потерями
Бит/(Пиксели*Кадры) : 0.154
Размер потока : 183 Мбайт (64%)
Библиотека кодирования : XviD 1.2.1 (UTC 2008-12-04)
Аудио #1
Идентификатор : 1
Формат : AC-3
Формат/Информация : Audio Coding 3
Расширение режима : CM (complete main)
Параметр Endianness формата : Big
Идентификатор кодека : 2000
Продолжительность : 24 м.
Вид битрейта : Постоянный
Битрейт : 384 Кбит/сек
Каналы : 2 канала
Расположение каналов : Front: L R
Частота : 48,0 КГц
Битовая глубина : 16 бит
Метод сжатия : С потерями
Задержка видео : 4 с. 0 мс.
Размер потока : 66,1 Мбайт (23%)
Выравнивание : Разделение по промежуткам
Продолжительность промежутка : 42 мс. (1,00 видеокадр)
Время предзагрузки промежутка : 500 мс.
Аудио #2
Идентификатор : 2
Формат : AC-3
Формат/Информация : Audio Coding 3
Расширение режима : CM (complete main)
Параметр Endianness формата : Big
Идентификатор кодека : 2000
Продолжительность : 24 м.
Вид битрейта : Постоянный
Битрейт : 192 Кбит/сек
Каналы : 2 канала
Расположение каналов : Front: L R
Частота : 48,0 КГц
Битовая глубина : 16 бит
Метод сжатия : С потерями
Размер потока : 33,1 Мбайт (12%)
Выравнивание : Разделение по промежуткам
Продолжительность промежутка : 42 мс. (1,00 видеокадр)
Время предзагрузки промежутка : 500 мс.

Автор рипа:



   Похожие торренты   Торрент   Размер 
В этой теме нет новых непрочитанных сообщений. Шериф Келли и Дикий Запад / Sheriff Callie's Wild West [01x01-20 из 22] (2013) SATRip от New-Team | P

49 | 59

7.08 ГБ

В этой теме нет новых непрочитанных сообщений. Шериф Келли и Дикий Запад / Sheriff Callie's Wild West [01x02-04,07-12,14-15,17,19 из 21] (2013) SATRip от New-Team | P

94 | 22

4.6 ГБ

В этой теме нет новых непрочитанных сообщений. Шериф Келли и Дикий Запад / Sheriff Callie's Wild West [01x02,03,07-10,14-15,17,19 из 21] (2013) SATRip от New-Team | P

321 | 15

3.54 ГБ

В этой теме нет новых непрочитанных сообщений. Дикий, дикий Запад / Дикий, дикий Вест / Wild Wild West (1999) BDRip 720p от FireBit

5 | 6

4.84 ГБ

В этой теме нет новых непрочитанных сообщений. Дикий, дикий Запад / Дикий, дикий Вест / Wild Wild West (1999) BDRip 720p от FireBit

20 | 13

2.45 ГБ

В этой теме нет новых непрочитанных сообщений. Дикий, дикий Запад / Дикий, дикий Вест / Wild Wild West (1999) BDRip 1080p

31 | 6

4.36 ГБ

В этой теме нет новых непрочитанных сообщений. Дикий, дикий Вест / Дикий, дикий Запад / Wild Wild West (1999) BDRip 720p

404 | 33

3.63 ГБ




Вы не можете начинать темы
Вы не можете отвечать на сообщения
Вы не можете редактировать свои сообщения
Вы не можете удалять свои сообщения
Вы не можете добавлять вложения

Перейти:  
Для Мосгорсуда, Роскомнадзора и рекламодателей: mosgorsud-torrent[собачка]yandex.ru
 Вход
ppkBB3cker v.2 © 2008-2014 @ PPK
[ Time : 0.056s | 14 Queries | GZIP : Off ]

Торрент трекер RUTOR.IN, Не можете зайти на rutor.org? Какой новый адрес рутор? Какое зеркало рутор? Не работает rutor.org и зеркала? Тогда наш торрент специально для вас. Rutor.in неофициальное зеркало rutor. В случае если у Вас заблокирован rutor или вдруг Вы не можете на него зайти, то Вы без труда сможете скачать бесплатно и без рекламы последние новинки кино, игр, сериалов и прочего у нас, на Rutor.in. Не нужно использовать прокси, чтобы зайти на рутор, достаточно воспользоваться нашим ресурсом. Все новые фильмы, игры, сериалы, книги и музыка за 2013 и 2014 годы через торрент бесплатно. Скачивайте фильмы в хорошем качестве, игры для пк, xbox, playstation без регистрации. У нас вы найдете новые Зарубежные сериалы и Русские сериалы 2013, 2014, 2015 годов. Оставайтесь с нами, качайте любимые фильмы, игры, сериалы, книги и музыку.