img image001 image001 image001 image001 image001 image001 image001 image001 image001 image001 image001 image001 image001 image001 image001

Planets Sun Sun Sun
Статистика раздачи
Автор: Nickolas3434 | Размер: 4.11 ГБ | Добавлен: 09 дек 2014
Раздают: 13    Качают: 31
Скачать торрент
Скачать торрент
Описание торрента

СообщениеДобавлено: 09 дек 2014 

Страна: Сингапур / Zhejiang Zhongnan Groop Animation Video Co., LTD
Год выпуска: 2009
Жанр: мультфильм, приключения
Продолжительность: ~ 00:22:00 / серия
Перевод: Профессиональный (Многоголосый закадровый)
Субтитры: нет
Оригинальная аудиодорожка: нет


Режиссер: Шунронг Шен / Shunrong Shen


Озвучивали: неизвестно
Описание: Мультфильм рассказывает об увлекательном путешествии китайского принца и его верных друзей на «большую землю». Им предстоит противостоять невзгодам, бороться со штормами, давать отпор недругам и неуклонно двигаться к своей цели. Это путешествие обещает быть очень захватывающим!

Качество: DVDRip / DVD9 R5 от Hits for kids
Формат: AVI
Видео: 704x368 (1.91:1), 25.000 fps, XviD ~ 1600 kbps avg, 0.246 bit/pixel
Аудио: 48 kHz, Dolby AC3 5.1 448 kbps, русский
Релиз от:
01: Главный морской поход / A Glorious Voyage
02: Смертельный водоворот / Deadly Whirlpool
03: Большое цунами / Gigantic Tsunami
04: Ву Байшенг учится плавать / Wu Baisheng Learns To Swim
05: Эпидемия / The Plague is Here
06: Спасительное средство / A Life Line
07: Загадочный чужеземец / The Misterious Silent Man
08: Заговор Пичу / Pichu's Conspiracy
09: Поиски старого мастера Сквида / The Search for Old Master Squid
10: Поиски кольца на дне океана / Diving In Search of the Ring
11: Мир навсегда / Everlasting Peace
12: Подруга Тао Тао / Tao Tao's friendship
13: Маленький охотник на львов / The Misterious Tortoise Shell

General
Format : AVI
Format/Info : Audio Video Interleave
File size : 324 MiB
Duration : 22mn 2s
Overall bit rate : 2 053 Kbps
Writing application : VirtualDubModRus 1.5.10.2 (build 2542/release)
Writing library : VirtualDubMod build 2542/release
Video
ID : 0
Format : MPEG-4 Visual
Format profile : Advanced Simple@L5
Format settings, BVOP : 1
Format settings, QPel : No
Format settings, GMC : No warppoints
Format settings, Matrix : Custom
Codec ID : XVID
Codec ID/Hint : XviD
Duration : 22mn 2s
Bit rate : 1 596 Kbps
Width : 704 pixels
Height : 368 pixels
Display aspect ratio : 1.913
Frame rate : 25.000 fps
Color space : YUV
Chroma subsampling : 4:2:0
Bit depth : 8 bits
Scan type : Progressive
Compression mode : Lossy
Bits/(Pixel*Frame) : 0.246
Stream size : 252 MiB (78%)
Writing library : XviD 73
Audio
ID : 1
Format : AC-3
Format/Info : Audio Coding 3
Mode extension : CM (complete main)
Format settings, Endianness : Big
Codec ID : 2000
Duration : 22mn 2s
Bit rate mode : Constant
Bit rate : 448 Kbps
Channel(s) : 6 channels
Channel positions : Front: L C R, Side: L R, LFE
Sampling rate : 48.0 KHz
Bit depth : 16 bits
Compression mode : Lossy
Stream size : 70.6 MiB (22%)
Alignment : Split accross interleaves
Interleave, duration : 40 ms (1.00 video frame)
Interleave, preload duration : 500 ms





   Похожие торренты   Торрент   Размер 
В этой теме нет новых непрочитанных сообщений. Большое морское путешествие / Zheng He's Voyages to the West seas [01-13 из 52] (2009) DVD9 от New-Team | P | Лицензия

7 | 2

7.6 ГБ

В этой теме нет новых непрочитанных сообщений. Путешествие на запад / Go West: A Lucky Luke Adventure / Tous à l'Ouest: Une aventure de Lucky Luke (2007) DVD5 от New-Team | P | Лицензия

17 | 16

4.38 ГБ

В этой теме нет новых непрочитанных сообщений. Путешествие по Европе. Выпуск №27: Сицилия (2009) DVDRip от New-Team

0 | 1

1.46 ГБ

В этой теме нет новых непрочитанных сообщений. Путешествие по Европе. Выпуск №25: Прованс (2009) DVDRip от New-Team

0 | 1

745.28 МБ

В этой теме нет новых непрочитанных сообщений. Путешествие по Европе. Выпуск №27: Сицилия (2009) DVDRip-AVC от New-Team

0 | 1

1.46 ГБ

В этой теме нет новых непрочитанных сообщений. Путешествие по Европе. Выпуск №29: Шотландия (2009) DVDRip-AVC от New-Team

1 | 2

1.09 ГБ

В этой теме нет новых непрочитанных сообщений. Путешествие по Европе. Выпуск №29: Шотландия (2009) DVDRip от New-Team

2 | 3

743.17 МБ




Вы не можете начинать темы
Вы не можете отвечать на сообщения
Вы не можете редактировать свои сообщения
Вы не можете удалять свои сообщения
Вы не можете добавлять вложения

Перейти:  
Для Мосгорсуда, Роскомнадзора и рекламодателей: mosgorsud-torrent[собачка]yandex.ru
 Вход
ppkBB3cker v.2 © 2008-2014 @ PPK
[ Time : 0.029s | 15 Queries | GZIP : Off ]

Торрент трекер RUTOR.IN, Не можете зайти на rutor.org? Какой новый адрес рутор? Какое зеркало рутор? Не работает rutor.org и зеркала? Тогда наш торрент специально для вас. Rutor.in неофициальное зеркало rutor. В случае если у Вас заблокирован rutor или вдруг Вы не можете на него зайти, то Вы без труда сможете скачать бесплатно и без рекламы последние новинки кино, игр, сериалов и прочего у нас, на Rutor.in. Не нужно использовать прокси, чтобы зайти на рутор, достаточно воспользоваться нашим ресурсом. Все новые фильмы, игры, сериалы, книги и музыка за 2013 и 2014 годы через торрент бесплатно. Скачивайте фильмы в хорошем качестве, игры для пк, xbox, playstation без регистрации. У нас вы найдете новые Зарубежные сериалы и Русские сериалы 2013, 2014, 2015 годов. Оставайтесь с нами, качайте любимые фильмы, игры, сериалы, книги и музыку.