img image001 image001 image001 image001 image001 image001 image001 image001 image001 image001 image001 image001 image001 image001 image001

Planets Sun Sun Sun
Статистика раздачи
Автор: Nickolas3434 | Размер: 744.47 МБ | Добавлен: 15 дек 2014
Раздают: 568    Качают: 33
Скачать торрент
Скачать торрент
Описание торрента

СообщениеДобавлено: 15 дек 2014 

Страна: СССР
Производство: Союзмультфильм
Жанр: мультфильм, короткометражка
Год выпуска: 1939-1984
Продолжительность: (01:20:27) 00:09:34, 00:11:10, 00:10:24, 00:16:33, 00:07:22, 00:16:31, 00:08:53

Перевод: не требуется
Оригинальная аудиодорожка: русский
Cубтитры: нет

Режиссер: Иван Иванов-Вано, Владимир Полковников, Наталия Червинская, Владимир Попов, Наталья Дабижа

Описание:
Ваня и крокодил История о том, как в Петрограде появляется Крокодил и пугает обитателей города. Его не боится маленький мальчик Ваня Васильчиков. Крокодил оказывается не страшным и заводит дружбу с Ваней...
Краденое солнце По сказке Чуковского...
Мойдодыр-1939, 1954 Экранизация известной одноименной сказки К. Чуковского о мальчике-грязнуле, который не любил умываться. Поэтому от него убежали все вещи. Мойдодыр заставил Мочалку и Мыло насильно вымыть неряху...
От двух до пяти В мультфильме рассказывается об удивительной способности детей по-своему объяснять непонятные им слова и создавать новые и смешные «свои» слова...
Тараканище По сказке К. Чуковского о страшном-престрашном Тараканище, который до смерти напугал всех зверей, но был проглочен обыкновенным маленьким воробышком...
Федорино горе По сказке Чуковского...





Исходник: DVD5 R5
Качество: DVDRip
Формат: AVI

Видео: 640x480 (4:3), 25 fps, XviD ~ 1143 kbps avg, 0.149 bit/pixel
Аудио: 48 kHz, MP3 2,0, 128 kbps

Раздача от:
Общее
Полное имя : Sbornik.MoYdodyr.1939-1984.DVDRip-745_[New-team]_by_AVP_StudioТараканище.avi
Формат : AVI
Формат/Информация : Audio Video Interleave
Размер файла : 151 Мбайт
Продолжительность : 16 м.
Общий поток : 1281 Кбит/сек
Программа кодирования : VirtualDubModRus 1.5.10.2 (build 2542/release)
Библиотека кодирования : VirtualDubMod build 2542/release

Видео
Идентификатор : 0
Формат : MPEG-4 Visual
Профиль формата : Advanced Simple@L5
Параметр BVOP формата : 1
Параметр QPel формата : Нет
Параметр GMC формата : Без точки перехода
Параметр матрицы формата : Выборочная
Идентификатор кодека : XVID
Идентификатор кодека/Подсказка : XviD
Продолжительность : 16 м.
Битрейт : 1143 Кбит/сек
Ширина : 640 пикселей
Высота : 480 пикселей
Соотношение сторон : 4:3
Частота кадров : 25,000 кадров/сек
Цветовое пространство : YUV
Субдискретизация насыщенности : 4:2:0
Битовая глубина : 8 бит
Тип развёртки : Прогрессивная
Метод сжатия : С потерями
Бит/(Пиксели*Кадры) : 0.149
Размер потока : 135 Мбайт (89%)
Библиотека кодирования : XviD 73

Аудио
Идентификатор : 1
Формат : MPEG Audio
Версия формата : Version 1
Профиль формата : Layer 3
Идентификатор кодека : 55
Идентификатор кодека/Подсказка : MP3
Продолжительность : 16 м.
Вид битрейта : Постоянный
Битрейт : 128 Кбит/сек
Каналы : 2 канала
Частота : 48,0 КГц
Метод сжатия : С потерями
Размер потока : 15,1 Мбайт (10%)
Выравнивание : Соединение по промежуткам
Продолжительность промежутка : 40 мс. (1,00 видеокадр)
Время предзагрузки промежутка : 504 мс.
Библиотека кодирования : LAME3.99r
Настройки программы : -m s -V 4 -q 2 -lowpass 17 -b 128





   Похожие торренты   Торрент   Размер 
В этой теме нет новых непрочитанных сообщений. Мойдодыр (1939,1954), Тараканище, Федорино горе, От двух до пяти, Ваня и крокодил, Краденое солнце (1939-1984) DVDRip-AVC от New-Team

417 | 39

1.46 ГБ

В этой теме нет новых непрочитанных сообщений. Мойдодыр (1939,1954), Тараканище, Федорино горе, От двух до пяти, Ваня и крокодил, Краденое солнце (1939-1984) DVDRip от New-Team

397 | 34

1.45 ГБ

В этой теме нет новых непрочитанных сообщений. Мойдодыр, Тараканище, Федорино горе, От двух до пяти, Ваня и крокодил (1954-1984) DVD5

50 | 5

3.39 ГБ

В этой теме нет новых непрочитанных сообщений. Серые волки / Немецкие подводные лодки 1939-1945 / Grey wolves / U-boats 1939-1945 (2005) DVDRip-AVC от -=HD-NET=-

289 | 9

2.06 ГБ

В этой теме нет новых непрочитанных сообщений. Федорино горе (1974) DVDRip

382 | 24

103.22 МБ

В этой теме нет новых непрочитанных сообщений. Цветущая юность. Физкультурный парад 18 июля 1939 года (1939) SATRemux

2 | 4

386.2 МБ

В этой теме нет новых непрочитанных сообщений. Трактористы (1939) DVDRip-AVC от New-Team

287 | 36

1.46 ГБ




Вы не можете начинать темы
Вы не можете отвечать на сообщения
Вы не можете редактировать свои сообщения
Вы не можете удалять свои сообщения
Вы не можете добавлять вложения

Перейти:  
Для Мосгорсуда, Роскомнадзора и рекламодателей: mosgorsud-torrent[собачка]yandex.ru
 Вход
ppkBB3cker v.2 © 2008-2014 @ PPK
[ Time : 0.017s | 14 Queries | GZIP : Off ]
CGP output time : 0.040s | 5 Queries | GZIP : Off

Торрент трекер RUTOR.IN, Не можете зайти на rutor.org? Какой новый адрес рутор? Какое зеркало рутор? Не работает rutor.org и зеркала? Тогда наш торрент специально для вас. Rutor.in неофициальное зеркало rutor. В случае если у Вас заблокирован rutor или вдруг Вы не можете на него зайти, то Вы без труда сможете скачать бесплатно и без рекламы последние новинки кино, игр, сериалов и прочего у нас, на Rutor.in. Не нужно использовать прокси, чтобы зайти на рутор, достаточно воспользоваться нашим ресурсом. Все новые фильмы, игры, сериалы, книги и музыка за 2013 и 2014 годы через торрент бесплатно. Скачивайте фильмы в хорошем качестве, игры для пк, xbox, playstation без регистрации. У нас вы найдете новые Зарубежные сериалы и Русские сериалы 2013, 2014, 2015 годов. Оставайтесь с нами, качайте любимые фильмы, игры, сериалы, книги и музыку.