img image001 image001 image001 image001 image001 image001 image001 image001 image001 image001 image001 image001 image001 image001 image001

Planets Sun Sun Sun
Статистика раздачи
Автор: Nickolas3434 | Размер: 1.46 ГБ | Добавлен: 15 дек 2014
Раздают: 417    Качают: 39
Скачать торрент
Скачать торрент
Описание торрента

СообщениеДобавлено: 15 дек 2014 

Страна: СССР
Производство: Союзмультфильм
Жанр: мультфильм, короткометражка
Год выпуска: 1939-1984
Продолжительность: (01:20:27) 00:09:34, 00:11:10, 00:10:24, 00:16:33, 00:07:22, 00:16:31, 00:08:53

Перевод: не требуется
Оригинальная аудиодорожка: русский
Cубтитры: нет

Режиссер: Иван Иванов-Вано, Владимир Полковников, Наталия Червинская, Владимир Попов, Наталья Дабижа

Описание:
Ваня и крокодил История о том, как в Петрограде появляется Крокодил и пугает обитателей города. Его не боится маленький мальчик Ваня Васильчиков. Крокодил оказывается не страшным и заводит дружбу с Ваней...
Краденое солнце По сказке Чуковского...
Мойдодыр-1939, 1954 Экранизация известной одноименной сказки К. Чуковского о мальчике-грязнуле, который не любил умываться. Поэтому от него убежали все вещи. Мойдодыр заставил Мочалку и Мыло насильно вымыть неряху...
От двух до пяти В мультфильме рассказывается об удивительной способности детей по-своему объяснять непонятные им слова и создавать новые и смешные «свои» слова...
Тараканище По сказке К. Чуковского о страшном-престрашном Тараканище, который до смерти напугал всех зверей, но был проглочен обыкновенным маленьким воробышком...
Федорино горе По сказке Чуковского...





Исходник: DVD5 R5
Качество: DVDRip-AVC
Формат: MKV

Видео: 712->742x556 (4:3), 25 fps, H264 ~ 2139 kbps avg, 0.216 bit/pixel
Аудио: 48 kHz, Dolby Digital AC3 5.1, 448 kbps
Аудио: 48 kHz, Dolby Digital AC3 2,0, 192 kbps

Раздача от:
Общее
Полное имя : Sbornik.MoYdodyr.1939-1984.DVDRip-AVC_[New-team]_by_AVP_StudioМойдодыр-1954.mkv
Формат : Matroska
Версия формата : Version 2
Размер файла : 306 Мбайт
Продолжительность : 16 м.
Общий поток : 2589 Кбит/сек
Дата кодирования : UTC 2014-12-13 16:49:53
Программа кодирования : mkvmerge v6.1.0 ('Old Devil') built on Mar 4 2013 09:10:42
Библиотека кодирования : libebml v1.3.0 + libmatroska v1.4.0

Видео
Идентификатор : 1
Формат : AVC
Формат/Информация : Advanced Video Codec
Профиль формата : High@L4.1
Параметр CABAC формата : Да
Параметр ReFrames формата : 8 кадров
Идентификатор кодека : V_MPEG4/ISO/AVC
Продолжительность : 7 м. 22 с.
Битрейт : 2139 Кбит/сек
Ширина : 712 пикселей
Высота : 556 пикселей
Соотношение сторон : 4:3
Режим частоты кадров : Постоянный
Частота кадров : 25,000 кадров/сек
Цветовое пространство : YUV
Субдискретизация насыщенности : 4:2:0
Битовая глубина : 8 бит
Тип развёртки : Прогрессивная
Бит/(Пиксели*Кадры) : 0.216
Размер потока : 110 Мбайт (81%)
Библиотека кодирования : x264 core 138 r2356 a1d3d17
Настройки программы : cabac=1 / ref=8 / deblock=1:-2:-1 / analyse=0x3:0x113 / me=umh / subme=10 / psy=1 / psy_rd=1.00:0.05 / mixed_ref=1 / me_range=32 / chroma_me=1 / trellis=2 / 8x8dct=1 / cqm=0 / deadzone=21,11 / fast_pskip=0 / chroma_qp_offset=-3 / threads=6 / lookahead_threads=1 / sliced_threads=0 / nr=0 / decimate=0 / interlaced=0 / bluray_compat=0 / constrained_intra=0 / bframes=8 / b_pyramid=2 / b_adapt=2 / b_bias=0 / direct=3 / weightb=1 / open_gop=0 / weightp=2 / keyint=250 / keyint_min=25 / scenecut=40 / intra_refresh=0 / rc=2pass / mbtree=0 / bitrate=2139 / ratetol=1.0 / qcomp=0.60 / qpmin=0 / qpmax=69 / qpstep=4 / cplxblur=20.0 / qblur=0.5 / ip_ratio=1.40 / pb_ratio=1.30 / aq=1:1.00
Default : Да
Forced : Нет

Аудио
Идентификатор : 2
Формат : AC-3
Формат/Информация : Audio Coding 3
Расширение режима : CM (complete main)
Параметр Endianness формата : Big
Идентификатор кодека : A_AC3
Продолжительность : 7 м. 22 с.
Вид битрейта : Постоянный
Битрейт : 448 Кбит/сек
Каналы : 6 каналов
Расположение каналов : Front: L C R, Side: L R, LFE
Частота : 48,0 КГц
Битовая глубина : 16 бит
Метод сжатия : С потерями
Размер потока : 23,6 Мбайт (17%)
Default : Да
Forced : Нет





   Похожие торренты   Торрент   Размер 
В этой теме нет новых непрочитанных сообщений. Мойдодыр (1939,1954), Тараканище, Федорино горе, От двух до пяти, Ваня и крокодил, Краденое солнце (1939-1984) DVDRip от New-Team

397 | 34

1.45 ГБ

В этой теме нет новых непрочитанных сообщений. Мойдодыр (1939,1954), Тараканище, Федорино горе, От двух до пяти, Ваня и крокодил, Краденое солнце (1939-1984) DVDRip от New-Team

568 | 33

744.47 МБ

В этой теме нет новых непрочитанных сообщений. Мойдодыр, Тараканище, Федорино горе, От двух до пяти, Ваня и крокодил (1954-1984) DVD5

50 | 5

3.39 ГБ

В этой теме нет новых непрочитанных сообщений. Серые волки / Немецкие подводные лодки 1939-1945 / Grey wolves / U-boats 1939-1945 (2005) DVDRip-AVC от -=HD-NET=-

289 | 9

2.06 ГБ

В этой теме нет новых непрочитанных сообщений. Федорино горе (1974) DVDRip

382 | 24

103.22 МБ

В этой теме нет новых непрочитанных сообщений. Цветущая юность. Физкультурный парад 18 июля 1939 года (1939) SATRemux

2 | 4

386.2 МБ

В этой теме нет новых непрочитанных сообщений. Друзья (1939) DVDRip от New-Team

5 | 6

748.02 МБ




Вы не можете начинать темы
Вы не можете отвечать на сообщения
Вы не можете редактировать свои сообщения
Вы не можете удалять свои сообщения
Вы не можете добавлять вложения

Перейти:  
Для Мосгорсуда, Роскомнадзора и рекламодателей: mosgorsud-torrent[собачка]yandex.ru
 Вход
ppkBB3cker v.2 © 2008-2014 @ PPK
[ Time : 0.036s | 15 Queries | GZIP : Off ]

Торрент трекер RUTOR.IN, Не можете зайти на rutor.org? Какой новый адрес рутор? Какое зеркало рутор? Не работает rutor.org и зеркала? Тогда наш торрент специально для вас. Rutor.in неофициальное зеркало rutor. В случае если у Вас заблокирован rutor или вдруг Вы не можете на него зайти, то Вы без труда сможете скачать бесплатно и без рекламы последние новинки кино, игр, сериалов и прочего у нас, на Rutor.in. Не нужно использовать прокси, чтобы зайти на рутор, достаточно воспользоваться нашим ресурсом. Все новые фильмы, игры, сериалы, книги и музыка за 2013 и 2014 годы через торрент бесплатно. Скачивайте фильмы в хорошем качестве, игры для пк, xbox, playstation без регистрации. У нас вы найдете новые Зарубежные сериалы и Русские сериалы 2013, 2014, 2015 годов. Оставайтесь с нами, качайте любимые фильмы, игры, сериалы, книги и музыку.