img image001 image001 image001 image001 image001 image001 image001 image001 image001 image001 image001 image001 image001 image001 image001

Planets Sun Sun Sun
Статистика раздачи
Автор: Nickolas3434 | Размер: 1.85 ГБ | Добавлен: 15 дек 2014
Раздают: 179    Качают: 22
Скачать торрент
Скачать торрент
Описание торрента

СообщениеДобавлено: 15 дек 2014 

Информация о фильме
Название: Приключения Десперо
Оригинальное название: The Tale of Despereaux
Год выхода: 2008
Жанр: Приключения, Анимация, Комедия, Семейный
Режиссер: Сэм Фелл / Sam Fell, Роберт Стивенхейген / Robert Stevenhagen
В ролях:
Роли озвучивали: Мэттью Бродерик, Дастин Хоффман, Эмма Уотсон, Трэйси Ульман, Кевин Клайн, Уильям Х. Мэйси, Стэнли Туччи, Сайэрэн Хайндз, Робби Колтрэйн, Тони Хэйл, Фрэнсис Конрой, Фрэнк Ланджелла, Ричард Дженкинс, Кристофер Ллойд, Чарльз Шонесси, Сигурни Уивер
Роли дублировали: Егор Бероев, Владимир Еремин, Маша Иващенко, Никита Прозоровский, Сергей Балабанов, Владимир Зайцев, Валентин Гафт, Михаил Георгиу, Михаил Тихонов, Ольга Зубкова, Борис Клюев, Александр Леньков, Анна Каменкова

О фильме:
В одной деревне, что раскинулась под замком, родился мышонок по имени Десперо. Ух ты, он такой сладенький, а посмотрите на его уши! В мире мышей можно жить правильно и неправильно. Но Десперо всё делает по-своему. В мире есть столько чудесных вещей, которых стоит бояться, но только не Десперо. Маленький мышонок Десперо - исключение среди мышей! Десперо - джентльмен! Не испугался, не побоялся, не убежал...

Страна: США, Великобритания
Продолжительность: 01:33:35
Перевод: Профессиональный (полное дублирование) + Оригинал

Файл
Кодек: h264
Качество: BDRip 720 от SuperMin
Видео: 1280x544 (2.35:1), 1487 kbps, 23.976 fps
Звук:
Русский (AC-3, 6ch, 640kbps)
Оригинал (AC-3, 6ch, 640kbps)
General
Unique ID : 230385491058474002978054554461308226834 (0xAD52A1B06B369B23B5F2C75AFA788D12)
Complete name : G:МУЛЬТЫПРИКЛЮЧЕНИЯ ДЕСПЕРО.mkv
Format : Matroska
Format version : Version 4 / Version 2
File size : 1.85 GiB
Duration : 1h 33mn
Overall bit rate : 2 823 Kbps
Movie name : Приключения Десперо.2008
Encoded date : UTC 2014-12-14 13:21:48
Writing application : mkvmerge v7.3.0 ('Nouages') 64bit built on Oct 22 2014 18:53:34
Writing library : libebml v1.3.0 + libmatroska v1.4.1
DURATION : 01:33:35.136000000
NUMBER_OF_FRAMES : 175473
NUMBER_OF_BYTES : 449210880
_STATISTICS_WRITING_APP : mkvmerge v7.3.0 ('Nouages') 64bit built on Oct 22 2014 18:53:34
_STATISTICS_WRITING_DATE_UTC : 2014-12-14 13:21:48
_STATISTICS_TAGS : BPS DURATION NUMBER_OF_FRAMES NUMBER_OF_BYTES

Video
ID : 1
Format : AVC
Format/Info : Advanced Video Codec
Format profile : High@L4.1
Format settings, CABAC : Yes
Format settings, ReFrames : 9 frames
Codec ID : V_MPEG4/ISO/AVC
Duration : 1h 33mn
Bit rate : 1 487 Kbps
Width : 1 280 pixels
Height : 544 pixels
Display aspect ratio : 2.35:1
Original display aspect ratio : 2.35:1
Frame rate mode : Constant
Frame rate : 23.976 fps
Color space : YUV
Chroma subsampling : 4:2:0
Bit depth : 8 bits
Scan type : Progressive
Bits/(Pixel*Frame) : 0.089
Stream size : 996 MiB (53%)
Writing library : x264 core 142 r2479kMod dd79a61
Encoding settings : cabac=1 / ref=9 / deblock=1:0:0 / analyse=0x3:0x133 / me=umh / subme=11 / psy=1 / fade_compensate=0.00 / psy_rd=1.00:0.00 / mixed_ref=1 / me_range=32 / chroma_me=1 / trellis=2 / 8x8dct=1 / cqm=0 / deadzone=21,11 / fast_pskip=0 / chroma_qp_offset=-2 / threads=2 / lookahead_threads=1 / sliced_threads=0 / nr=0 / decimate=1 / interlaced=0 / bluray_compat=0 / constrained_intra=0 / fgo=0 / bframes=7 / b_pyramid=2 / b_adapt=2 / b_bias=0 / direct=1 / weightb=1 / open_gop=0 / weightp=2 / keyint=240 / keyint_min=23 / scenecut=40 / intra_refresh=0 / rc_lookahead=40 / rc=crf / mbtree=1 / crf=18.0000 / qcomp=0.60 / qpmin=0 / qpmax=69 / qpstep=4 / ip_ratio=1.40 / aq=1:1.00
Default : Yes
Forced : No

Audio #1
ID : 2
Format : AC-3
Format/Info : Audio Coding 3
Mode extension : CM (complete main)
Format settings, Endianness : Big
Codec ID : A_AC3
Duration : 1h 33mn
Bit rate mode : Constant
Bit rate : 640 Kbps
Channel(s) : 6 channels
Channel positions : Front: L C R, Side: L R, LFE
Sampling rate : 48.0 KHz
Bit depth : 16 bits
Compression mode : Lossy
Stream size : 428 MiB (23%)
Title : Дубляж
Language : Russian
Default : Yes
Forced : No

Audio #2
ID : 3
Format : AC-3
Format/Info : Audio Coding 3
Mode extension : CM (complete main)
Format settings, Endianness : Big
Codec ID : A_AC3
Duration : 1h 33mn
Bit rate mode : Constant
Bit rate : 640 Kbps
Channel(s) : 6 channels
Channel positions : Front: L C R, Side: L R, LFE
Sampling rate : 48.0 KHz
Bit depth : 16 bits
Compression mode : Lossy
Stream size : 428 MiB (23%)
Title : Оригинал
Language : English
Default : No
Forced : No

Menu
00:00:00.000 : en:
00:05:00.000 : en:
00:10:00.000 : en:
00:15:00.000 : en:
00:20:00.000 : en:
00:25:00.000 : en:
00:30:00.000 : en:
00:35:00.000 : en:
00:40:00.000 : en:
00:45:00.000 : en:
00:50:00.000 : en:
00:55:00.000 : en:
01:00:00.000 : en:
01:05:00.000 : en:
01:10:00.000 : en:
01:15:00.000 : en:
01:20:00.000 : en:
01:25:00.000 : en:
01:30:00.000 : en:



Релиз от: SuperMin



   Похожие торренты   Торрент   Размер 
В этой теме нет новых непрочитанных сообщений. Приключения Десперо / The Tale of Despereaux (2008) BDRip 1080p

46 | 5

4.38 ГБ

В этой теме нет новых непрочитанных сообщений. Приключения Десперо / The Tale of Despereaux (2008) BDRip от HELLYWOOD

6 | 2

1.45 ГБ

В этой теме нет новых непрочитанных сообщений. Приключения Десперо / The Tale of Despereaux (2008) BDRip-AVC | iPad

9 | 1

1.53 ГБ

В этой теме нет новых непрочитанных сообщений. Приключения Десперо / The Tale of Despereaux (2008) BDRip от HQCLUB

126 | 12

1.45 ГБ

В этой теме нет новых непрочитанных сообщений. Приключения Десперо / The Tale of Despereaux (2008) BDRip-AVC от ExKinoRay | Лицензия

45 | 17

1.66 ГБ

В этой теме нет новых непрочитанных сообщений. Приключения Десперо / The Tale of Despereaux (2008) HDRip

26 | 3

747.67 МБ

В этой теме нет новых непрочитанных сообщений. Приключение Десперо / The tales of Despereaux (2008) PC

9 | 11

3.28 ГБ




Вы не можете начинать темы
Вы не можете отвечать на сообщения
Вы не можете редактировать свои сообщения
Вы не можете удалять свои сообщения
Вы не можете добавлять вложения

Перейти:  
Для Мосгорсуда, Роскомнадзора и рекламодателей: mosgorsud-torrent[собачка]yandex.ru
 Вход
ppkBB3cker v.2 © 2008-2014 @ PPK
[ Time : 0.022s | 16 Queries | GZIP : On ]

Торрент трекер RUTOR.IN, Не можете зайти на rutor.org? Какой новый адрес рутор? Какое зеркало рутор? Не работает rutor.org и зеркала? Тогда наш торрент специально для вас. Rutor.in неофициальное зеркало rutor. В случае если у Вас заблокирован rutor или вдруг Вы не можете на него зайти, то Вы без труда сможете скачать бесплатно и без рекламы последние новинки кино, игр, сериалов и прочего у нас, на Rutor.in. Не нужно использовать прокси, чтобы зайти на рутор, достаточно воспользоваться нашим ресурсом. Все новые фильмы, игры, сериалы, книги и музыка за 2013 и 2014 годы через торрент бесплатно. Скачивайте фильмы в хорошем качестве, игры для пк, xbox, playstation без регистрации. У нас вы найдете новые Зарубежные сериалы и Русские сериалы 2013, 2014, 2015 годов. Оставайтесь с нами, качайте любимые фильмы, игры, сериалы, книги и музыку.