img image001 image001 image001 image001 image001 image001 image001 image001 image001 image001 image001 image001 image001 image001 image001

Planets Sun Sun Sun
Статистика раздачи
Автор: Nickolas3434 | Размер: 4.24 ГБ | Добавлен: 17 дек 2014
Раздают: 580    Качают: 30
Скачать торрент
Скачать торрент
Описание торрента

СообщениеДобавлено: 17 дек 2014 

Информация о фильме
Название: Робокар Поли и его друзья
Оригинальное название: Robocar Poli
Год выхода: 2013
Жанр: мультфильм
Режиссер: Ем Джун Янг
В ролях: Ан Джи Минг, Сон Джан Хук, Ем Джун Янг, Ли Янг Во, Джо Хье Джин, Ко Си Ян, Чо Джи Хун, Ким Хо Пак
О фильме:
В каждой серии Робокар Поли и его дружная команда спешит на помошь всем, кто попал в беду. С помощью этого сериала маленькие зрители смогут изучить правила поведения в городе, общения с друзьями и посторонними, научатся совершать добрые и правильные поступки, а так же смогут обезопасить себя и своих близких в повседневной жизни. Образовательный мультсериал "Робокар Поли" в игровой форме учит детишек правилам дорожного движения, поведению рядом с проезжей частью. И даже будучи пешеходами, они смогут чувствовать себя такими же участниками дорожного движения, как и машины.
Официальный сайт
Страна: Корея Южная
Студия: RoiVisual, Educational Broadcasting System, Hyundai Motors, Benex Investment, Korea Creative Content Agency
Продолжительность: ~00:12:00 серия
Перевод: Дублированный
Файл
Кодек: XviD/ AC3
Качество: WEBRip
Видео: MPEG4, XviD, 720x400 (16:9), 25.000 fps, 1 799 Kbps (0.250 bit/pixel)
Звук: AC-3, 48.0 KHz, 2 ch, 192 Kbps, CBR
General
Complete name : /Робокар Поли и его друзья.2 сезон. Xvid.-merci/01. Проблемный гость. XviD.-merci.avi
Format : AVI
Format/Info : Audio Video Interleave
File size : 197 MiB
Duration : 13mn 46s
Overall bit rate : 2 001 Kbps
Writing application : VirtualDubMod 1.5.10.3 | www.virtualdub-fr.org || (build 2550/release)
Writing library : VirtualDubMod build 2550/release
Video
ID : 0
Format : MPEG-4 Visual
Format profile : Advanced Simple@L5
Format settings, BVOP : 1
Format settings, QPel : No
Format settings, GMC : No warppoints
Format settings, Matrix : Default (MPEG)
Codec ID : XVID
Codec ID/Hint : XviD
Duration : 13mn 46s
Bit rate : 1 799 Kbps
Width : 720 pixels
Height : 400 pixels
Display aspect ratio : 16:9
Frame rate : 25.000 fps
Color space : YUV
Chroma subsampling : 4:2:0
Bit depth : 8 bits
Scan type : Progressive
Compression mode : Lossy
Bits/(Pixel*Frame) : 0.250
Stream size : 177 MiB (90%)
Writing library : XviD 65
Audio
ID : 1
Format : AC-3
Format/Info : Audio Coding 3
Mode extension : CM (complete main)
Format settings, Endianness : Big
Codec ID : 2000
Duration : 13mn 46s
Bit rate mode : Constant
Bit rate : 192 Kbps
Channel(s) : 2 channels
Channel positions : Front: L R
Sampling rate : 48.0 KHz
Bit depth : 16 bits
Compression mode : Lossy
Stream size : 18.9 MiB (10%)
Alignment : Split accross interleaves
Interleave, duration : 40 ms (1.00 video frame)
Interleave, preload duration : 500 ms
Title : rus
Раздача ведётся путём добавления новых серий; при каждом добавлении создаётся новый торрент. Чтобы начать докачку новой серии, пользователям необходимо сделать следующее:
(1) остановить скачивание,
(2) удалить старый торрент у себя из клиента (старые серии удалять не надо),
(3) скачать новый торрент и запустить его у себя в клиенте вместо старого, при этом указать клиенту путь в старую папку куда и должно происходить скачивание новых серий.
Ваш клиент при этом должен произвести хеширование (проверку) старой папки (если не производит сам - помогите ему сделать это), и будет докачивать только те серии которых у вас ещё нет. Старые серии при этом не удаляются, а продолжают раздаваться!
Eсли вы уже удалили старые серии, то предотвратить повторную закачку старых серий можно, отжав галочку в соответствующих местах при запуске нового торрента. По возможности, желательно не удалять старые серии как можно дольше чтобы релизёр не столько продолжал раздавать старые серии, а смог сконцентрироваться на новых.



   Похожие торренты   Торрент   Размер 
В этой теме нет новых непрочитанных сообщений. Робокар Поли и его друзья / Robocar Poli [02x01-10] (2013) WEBRip | D

1011 | 103

1.93 ГБ

В этой теме нет новых непрочитанных сообщений. Робокар Поли и его друзья / Robocar Poli [02x01-10] (2013) WEBRip | D

408 | 54

2.7 ГБ

В этой теме нет новых непрочитанных сообщений. Робокар Поли и его Друзья / Robocar Poli [01-36 из 56] (2011-2013) WEBRip | Cartoon World

379 | 38

3.7 ГБ

В этой теме нет новых непрочитанных сообщений. Робокар Поли и его друзья / Robocar Poli [01-45 + Bonus] (2011) WEBRip | D

151 | 44

6.56 ГБ

В этой теме нет новых непрочитанных сообщений. Робокар Поли и его друзья / Robocar Poli [01-48 + Bonus] (2011) WEBRip | D

577 | 116

7.01 ГБ

В этой теме нет новых непрочитанных сообщений. Робокар Поли и его друзья / Robocar Poli [01-27 + Bonus] (2011) WEBRip | D

88 | 90

3.95 ГБ

В этой теме нет новых непрочитанных сообщений. Робокар Поли и его друзья / Robocar Poli [01-29 + Bonus] (2011) WEBRip | D

186 | 66

4.21 ГБ




Вы не можете начинать темы
Вы не можете отвечать на сообщения
Вы не можете редактировать свои сообщения
Вы не можете удалять свои сообщения
Вы не можете добавлять вложения

Перейти:  
Для Мосгорсуда, Роскомнадзора и рекламодателей: mosgorsud-torrent[собачка]yandex.ru
 Вход
ppkBB3cker v.2 © 2008-2014 @ PPK
[ Time : 0.027s | 17 Queries | GZIP : Off ]

Торрент трекер RUTOR.IN, Не можете зайти на rutor.org? Какой новый адрес рутор? Какое зеркало рутор? Не работает rutor.org и зеркала? Тогда наш торрент специально для вас. Rutor.in неофициальное зеркало rutor. В случае если у Вас заблокирован rutor или вдруг Вы не можете на него зайти, то Вы без труда сможете скачать бесплатно и без рекламы последние новинки кино, игр, сериалов и прочего у нас, на Rutor.in. Не нужно использовать прокси, чтобы зайти на рутор, достаточно воспользоваться нашим ресурсом. Все новые фильмы, игры, сериалы, книги и музыка за 2013 и 2014 годы через торрент бесплатно. Скачивайте фильмы в хорошем качестве, игры для пк, xbox, playstation без регистрации. У нас вы найдете новые Зарубежные сериалы и Русские сериалы 2013, 2014, 2015 годов. Оставайтесь с нами, качайте любимые фильмы, игры, сериалы, книги и музыку.