img image001 image001 image001 image001 image001 image001 image001 image001 image001 image001 image001 image001 image001 image001 image001

Planets Sun Sun Sun
Статистика раздачи
Автор: Nickolas3434 | Размер: 5.75 ГБ | Добавлен: 17 дек 2014
Раздают: 85    Качают: 11
Скачать торрент
Скачать торрент
Описание торрента

СообщениеДобавлено: 17 дек 2014 

Геркулес / Hercules

«A Comedy of Epic Proportions»

Русское название: Геркулес
Оригинальное название: Hercules
Год выпуска: 1997
Жанр: мультфильм, мюзикл, фэнтези, комедия, приключения, семейный
Выпущено: США
Режиссер: Рон Клементс / Ron Clements, Джон Маскер / John Musker
В ролях: Тейт Донован , Джошуа Китон , Роджер Барт , Дэнни ДеВито , Джеймс Вудс , Сьюзэн Иган , Боб Голдтуэйт , Мэтт Фрюэр , Рип Торн , Саманта Эггар , Барбара Барри , Хэл Холбрук
Перевод: Дублированный, Профессиональный многоголосый, Авторский (одноголосый)

Сюжет фильма:
Аид - властитель загробного мира. Много лет назад он был фактически сослан своим старшим братом Зевсом в глубины Ада и теперь намерен наверстать упущенное, собрав армию монстров и захватив Олимп. Единственный, кто может помешать Аиду - сын Зевса, юный Геркулес, поэтому прислужники злодея похищают младенца и превращают его в простого смертного.
Спустя много лет юноша узнает о своем происхождении и ставит целью вернуться домой, но для этого ему придется совершить немало подвигов и стать настоящим героем. Но, как выясняется, даже победы над силами зла недостаточно, чтобы вернуть божественное начало...

Качество: BDRip 1080p (исходник Blu-ray)
Формат: AVC (библиотека кодирования x.264)
Контейнер (Расширение): MKV
Видео: 1920x1080 (16:9), 6150 Кбит/сек, 23,976 кадр/сек, 0,124 Бит/[Пиксели*Кадры]
Аудио №1: русский / AC3 / 5.1 / 48 kHz / 640 kbps / 16 bit |Дублированный|
Аудио №2: русский / AC3 / 5.1 / 48 kHz / 384 kbps / 16 bit |Профессиональный многоголосый|
Аудио №3: русский / AC3 / 5.1 / 48 kHz / 384 kbps / 16 bit |Профессиональный многоголосый (НТВ)|
Аудио №4: русский / AC3 / 5.1 / 48 kHz / 448 kbps / 16 bit |Авторский одноголосый (П.Санаев)|
Аудио №5: русский / AC3 / 2.0 / 48 kHz / 192 kbps / 16 bit |Авторский одноголосый (Н.Антонов)|
Аудио №6: английский / AC3 / 5.1 / 48 kHz / 640 kbps / 16 bit
Субтитры: русские (Russian)
Навигация по главам(Чаптеры): есть
Продолжительность: 01:33:12
Автор рипа: Сообщество:

Format : Matroska
Format version : Version 2
File size : 5.75 GiB
Duration : 1h 33mn
Overall bit rate : 8 835 Kbps
Movie name : Gerkules.(1997).BDRip.1080p.[denis100]
Encoded date : UTC 2014-12-15 13:02:42
Writing application : mkvmerge v5.8.0 ('No Sleep / Pillow') built on Sep 2 2012 15:37:04
Writing library : libebml v1.2.3 + libmatroska v1.3.0
Video
ID : 1
Format : AVC
Format/Info : Advanced Video Codec
Format profile : High@L4.1
Format settings, CABAC : Yes
Format settings, ReFrames : 4 frames
Codec ID : V_MPEG4/ISO/AVC
Duration : 1h 33mn
Bit rate : 6 150 Kbps
Width : 1 920 pixels
Height : 1 080 pixels
Display aspect ratio : 16:9
Frame rate : 23.976 fps
Color space : YUV
Chroma subsampling : 4:2:0
Bit depth : 8 bits
Scan type : Progressive
Bits/(Pixel*Frame) : 0.124
Stream size : 3.89 GiB (68%)
Title : Gerkules.(1997).BDRip.1080p.[denis100]
Writing library : x264 core 142 r2491 24e4fed
Encoding settings : cabac=1 / ref=4 / deblock=1:0:0 / analyse=0x3:0x133 / me=umh / subme=11 / psy=1 / psy_rd=1.00:0.10 / mixed_ref=1 / me_range=32 / chroma_me=1 / trellis=2 / 8x8dct=1 / cqm=0 / deadzone=21,11 / fast_pskip=0 / chroma_qp_offset=-3 / threads=6 / lookahead_threads=1 / sliced_threads=0 / nr=0 / decimate=1 / interlaced=0 / bluray_compat=0 / constrained_intra=0 / bframes=8 / b_pyramid=2 / b_adapt=2 / b_bias=0 / direct=3 / weightb=1 / open_gop=0 / weightp=2 / keyint=240 / keyint_min=23 / scenecut=40 / intra_refresh=0 / rc=2pass / mbtree=0 / bitrate=6150 / ratetol=1.0 / qcomp=0.60 / qpmin=0 / qpmax=69 / qpstep=4 / cplxblur=20.0 / qblur=0.5 / ip_ratio=1.40 / pb_ratio=1.30 / aq=2:0.90
Language : English
Default : Yes
Forced : No
Audio #1
ID : 2
Format : AC-3
Format/Info : Audio Coding 3
Mode extension : CM (complete main)
Codec ID : A_AC3
Duration : 1h 33mn
Bit rate mode : Constant
Bit rate : 640 Kbps
Channel(s) : 6 channels
Channel positions : Front: L C R, Side: L R, LFE
Sampling rate : 48.0 KHz
Bit depth : 16 bits
Compression mode : Lossy
Stream size : 427 MiB (7%)
Title : Дублированный
Language : Russian
Default : Yes
Forced : No
Audio #2
ID : 3
Format : AC-3
Format/Info : Audio Coding 3
Mode extension : CM (complete main)
Codec ID : A_AC3
Duration : 1h 33mn
Bit rate mode : Constant
Bit rate : 384 Kbps
Channel(s) : 6 channels
Channel positions : Front: L C R, Side: L R, LFE
Sampling rate : 48.0 KHz
Bit depth : 16 bits
Compression mode : Lossy
Stream size : 256 MiB (4%)
Title : Профессиональный многоголосый
Language : Russian
Default : No
Forced : No
Audio #3
ID : 4
Format : AC-3
Format/Info : Audio Coding 3
Mode extension : CM (complete main)
Codec ID : A_AC3
Duration : 1h 33mn
Bit rate mode : Constant
Bit rate : 384 Kbps
Channel(s) : 6 channels
Channel positions : Front: L C R, Side: L R, LFE
Sampling rate : 48.0 KHz
Bit depth : 16 bits
Compression mode : Lossy
Stream size : 256 MiB (4%)
Title : Профессиональный многоголосый (НТВ)
Language : Russian
Default : No
Forced : No
Audio #4
ID : 5
Format : AC-3
Format/Info : Audio Coding 3
Mode extension : CM (complete main)
Codec ID : A_AC3
Duration : 1h 33mn
Bit rate mode : Constant
Bit rate : 448 Kbps
Channel(s) : 6 channels
Channel positions : Front: L C R, Side: L R, LFE
Sampling rate : 48.0 KHz
Bit depth : 16 bits
Compression mode : Lossy
Stream size : 299 MiB (5%)
Title : Авторский одноголосый (П.Санаев)
Language : Russian
Default : No
Forced : No
Audio #5
ID : 6
Format : AC-3
Format/Info : Audio Coding 3
Mode extension : CM (complete main)
Codec ID : A_AC3
Duration : 1h 33mn
Bit rate mode : Constant
Bit rate : 192 Kbps
Channel(s) : 2 channels
Channel positions : Front: L R
Sampling rate : 48.0 KHz
Bit depth : 16 bits
Compression mode : Lossy
Stream size : 128 MiB (2%)
Title : Авторский одноголосый (Н.Антонов)
Language : Russian
Default : No
Forced : No
Audio #6
ID : 7
Format : AC-3
Format/Info : Audio Coding 3
Mode extension : CM (complete main)
Codec ID : A_AC3
Duration : 1h 33mn
Bit rate mode : Constant
Bit rate : 640 Kbps
Channel(s) : 6 channels
Channel positions : Front: L C R, Side: L R, LFE
Sampling rate : 48.0 KHz
Bit depth : 16 bits
Compression mode : Lossy
Stream size : 427 MiB (7%)
Title : English
Language : English
Default : No
Forced : No
Text
ID : 8
Format : UTF-8
Codec ID : S_TEXT/UTF8
Codec ID/Info : UTF-8 Plain Text
Title : Russian
Language : Russian
Default : No
Forced : No
Menu
00:00:00.000 : en:Chapter 01
00:07:00.044 : en:Chapter 02
00:09:42.748 : en:Chapter 03
00:13:18.672 : en:Chapter 04
00:18:37.074 : en:Chapter 05
00:22:33.352 : en:Chapter 06
00:24:42.813 : en:Chapter 07
00:29:38.777 : en:Chapter 08
00:33:03.856 : en:Chapter 09
00:37:17.777 : en:Chapter 10
00:43:05.332 : en:Chapter 11
00:47:07.491 : en:Chapter 12
00:53:20.739 : en:Chapter 13
00:59:00.328 : en:Chapter 14
01:05:33.554 : en:Chapter 15
01:11:40.212 : en:Chapter 16
01:16:05.602 : en:Chapter 17
01:20:20.732 : en:Chapter 18
01:26:02.615 : en:Chapter 19
01:27:57.188 : en:Chapter 20
01:33:01.117 : en:Chapter 21
x264 [info]: frame I:1082 Avg QP:14.00 size:211381
x264 [info]: frame P:46130 Avg QP:18.15 size: 55134
x264 [info]: frame B:86867 Avg QP:19.31 size: 17598




   Похожие торренты   Торрент   Размер 
В этой теме нет новых непрочитанных сообщений. Геркулес / Hercules (1997) BDRip 1080p от Freeisland

96 | 18

4.37 ГБ

В этой теме нет новых непрочитанных сообщений. Геркулес / Hercules (1997) BDRip-HEVC 1080p от FREEISLAND

51 | 7

3.18 ГБ

В этой теме нет новых непрочитанных сообщений. Геркулес / Hercules (1997) Blu-ray Remux 1080p от MediaClub | D. P, A

4 | 5

25.04 ГБ

В этой теме нет новых непрочитанных сообщений. Геркулес / Hercules (1997) BDRip от HQCLUB

365 | 22

1.45 ГБ

В этой теме нет новых непрочитанных сообщений. Геркулес / Hercules (1997) BDRip-AVC от New-Team | D

124 | 16

745.45 МБ

В этой теме нет новых непрочитанных сообщений. Геркулес / Hercules (1997) BDRip от MediaClub | D, P

280 | 19

1.45 ГБ

В этой теме нет новых непрочитанных сообщений. Геркулес / Hercules (1997) BDRip-AVC от MediaClub | D. P, A

18 | 3

2.63 ГБ




Вы не можете начинать темы
Вы не можете отвечать на сообщения
Вы не можете редактировать свои сообщения
Вы не можете удалять свои сообщения
Вы не можете добавлять вложения

Перейти:  
Для Мосгорсуда, Роскомнадзора и рекламодателей: mosgorsud-torrent[собачка]yandex.ru
 Вход
ppkBB3cker v.2 © 2008-2014 @ PPK
[ Time : 0.051s | 17 Queries | GZIP : On ]

Торрент трекер RUTOR.IN, Не можете зайти на rutor.org? Какой новый адрес рутор? Какое зеркало рутор? Не работает rutor.org и зеркала? Тогда наш торрент специально для вас. Rutor.in неофициальное зеркало rutor. В случае если у Вас заблокирован rutor или вдруг Вы не можете на него зайти, то Вы без труда сможете скачать бесплатно и без рекламы последние новинки кино, игр, сериалов и прочего у нас, на Rutor.in. Не нужно использовать прокси, чтобы зайти на рутор, достаточно воспользоваться нашим ресурсом. Все новые фильмы, игры, сериалы, книги и музыка за 2013 и 2014 годы через торрент бесплатно. Скачивайте фильмы в хорошем качестве, игры для пк, xbox, playstation без регистрации. У нас вы найдете новые Зарубежные сериалы и Русские сериалы 2013, 2014, 2015 годов. Оставайтесь с нами, качайте любимые фильмы, игры, сериалы, книги и музыку.