img image001 image001 image001 image001 image001 image001 image001 image001 image001 image001 image001 image001 image001 image001 image001

Planets Sun Sun Sun
Статистика раздачи
Автор: Nickolas3434 | Размер: 1.11 ГБ | Добавлен: 21 дек 2014
Раздают: 527    Качают: 26
Скачать торрент
Скачать торрент
Описание торрента

СообщениеДобавлено: 21 дек 2014 

Руины
Ruin



Год выпуска: 2011
Страна: США ( Attraktion Films, Oddball Animation)
Жанр: Короткометражка, Мультфильм, Фантастика, Боевик
Продолжительность: 0:08:11
Перевод: Не требуется
Режиссер: Уэс Болл / Wes Ball


Описание: В будущем, когда города разрушились и были обжиты дикой природой, мы присоединяемся к одинокому человеку, исследующему руины компании Хэйвен Наносистемс. Обнаружив закрытый контейнер, он, кажется, нашел то, что искал - информацию, имеющую отношение к закрытому на карантин корпусу "Б". Но, в этот момент героя обнаруживает дрон и начинается погоня...


Знаете ли вы, что: Уэс Болл пришёл в Fox с предложением снять по данной короткометражке полнометражный фильм, но вместо этого ему предложили снять The Maze Runner (Бегущий в лабиринте) и он согласился.




За исходный BD 3D Remux спасибо S.V.O.!


Качество: BDRip (by Ash61)
Контейнер: MKV
Формат 3D: Half OverUnder / Вертикальная анаморфная стереопара
Порядок ракурсов: левый ракурс первый
Видео кодек: x264
Аудио кодек: AC3


Видео: AVC / 23,976 fps / 1920х1080p / 18.6 Mbps
Аудио: Английский / AC3 / 48 KHz / 5.1 ch / 448 Kbps (Original)
Субтитры (SRT):
Вшитые (softsub) - Русские Форсированные (включены по умолчанию)
Внешние (UTF-8) - Русские Форсированные (включены по умолчанию)
General
Unique ID : 173630473227810905677644406517504043494 (0x82A003448D14B280985E1A074FDA69E6)
Complete name : E:Ruin(2012)3D-halfOU(Ash61)Ruin(2012)3D-halfOU(Ash61).mkv
Format : Matroska
Format version : Version 2
File size : 1.11 GiB
Duration : 8mn 11s
Overall bit rate : 19.5 Mbps
Movie name : Руины / Ruin (2012) 3D
Encoded date : UTC 2014-12-19 20:00:22
Writing application : mkvmerge v5.8.0 ('No Sleep / Pillow') built on Sep 2 2012 15:37:04
Writing library : libebml v1.2.3 + libmatroska v1.3.0
Video
ID : 1
Format : AVC
Format/Info : Advanced Video Codec
Format profile : High@L4.1
Format settings, CABAC : Yes
Format settings, ReFrames : 4 frames
Codec ID : V_MPEG4/ISO/AVC
Duration : 8mn 11s
Bit rate : 18.6 Mbps
Width : 1 920 pixels
Height : 1 080 pixels
Display aspect ratio : 16:9
Frame rate mode : Constant
Frame rate : 23.976 fps
Color space : YUV
Chroma subsampling : 4:2:0
Bit depth : 8 bits
Scan type : Progressive
Bits/(Pixel*Frame) : 0.374
Stream size : 1.06 GiB (96%)
Title : BDRip by Ash61
Writing library : x264 core 138 r2358 9e941d1
Encoding settings : cabac=1 / ref=4 / deblock=1:-3:-3 / analyse=0x3:0x113 / me=umh / subme=10 / psy=1 / psy_rd=1.00:0.00 / mixed_ref=1 / me_range=32 / chroma_me=1 / trellis=2 / 8x8dct=1 / cqm=0 / deadzone=21,11 / fast_pskip=1 / chroma_qp_offset=-2 / threads=12 / lookahead_threads=2 / sliced_threads=0 / nr=0 / decimate=1 / interlaced=0 / bluray_compat=0 / constrained_intra=0 / bframes=9 / b_pyramid=2 / b_adapt=2 / b_bias=0 / direct=3 / weightb=1 / open_gop=0 / weightp=2 / keyint=250 / keyint_min=23 / scenecut=40 / intra_refresh=0 / rc_lookahead=60 / rc=crf / mbtree=1 / crf=17.5 / qcomp=0.70 / qpmin=0 / qpmax=69 / qpstep=4 / vbv_maxrate=40000 / vbv_bufsize=30000 / crf_max=0.0 / nal_hrd=none / frame-packing=4 / ip_ratio=1.40 / aq=1:0.70
Language : English
Default : Yes
Forced : No
Audio
ID : 2
Format : AC-3
Format/Info : Audio Coding 3
Mode extension : CM (complete main)
Format settings, Endianness : Big
Codec ID : A_AC3
Duration : 8mn 11s
Bit rate mode : Constant
Bit rate : 448 Kbps
Channel(s) : 6 channels
Channel positions : Front: L C R, Side: L R, LFE
Sampling rate : 48.0 KHz
Bit depth : 16 bits
Compression mode : Lossy
Stream size : 26.2 MiB (2%)
Title : Original - BD 3D
Default : Yes
Forced : No
Text
ID : 3
Format : UTF-8
Codec ID : S_TEXT/UTF8
Codec ID/Info : UTF-8 Plain Text
Title : Форсированные
Language : Russian
Default : Yes
Forced : No










[/center]



   Похожие торренты   Торрент   Размер 
В этой теме нет новых непрочитанных сообщений. Вселенная (Сезон 6. Эпизоды 4 - 7) / The Universe (S06, E04 - E07) (2011) BDRip 1080p от Ash61 | 3D-Video | halfOU

53 | 101

21.02 ГБ

В этой теме нет новых непрочитанных сообщений. Вселенная (Сезон 6. Эпизоды 1 - 3) / The Universe (S06, E01 - E03) (2011) BDRip 1080p от Ash61 | 3D-Video | halfOU | Лицензия

98 | 42

14.43 ГБ

В этой теме нет новых непрочитанных сообщений. Ангкор: Земля богов / Angkor: Land of the Gods (2011) BDRip 1080p от Ash61 | 3D-Video | halfOU | P2

77 | 64

8.53 ГБ

В этой теме нет новых непрочитанных сообщений. Вики, маленький викинг 2 / Wickie auf grosser Fahrt (2011) BDRip 1080p от Ash61 | 3D-Video | halfOU | L1

8 | 2

10.88 ГБ

В этой теме нет новых непрочитанных сообщений. Гог / Gog (1954) BDRip 1080p от Ash61 | 3D-Video | halfOU | P

19 | 5

6.79 ГБ

В этой теме нет новых непрочитанных сообщений. Best of 3D (Vol. 1-9) (2013) BDRip 1080p от Ash61 | 3D-Video | halfOU

146 | 133

35.86 ГБ

В этой теме нет новых непрочитанных сообщений. Беги / Run (2013) BDRip 1080p от Ash61 | 3D-Video | halfOU

306 | 180

10.08 ГБ




Вы не можете начинать темы
Вы не можете отвечать на сообщения
Вы не можете редактировать свои сообщения
Вы не можете удалять свои сообщения
Вы не можете добавлять вложения

Перейти:  
Для Мосгорсуда, Роскомнадзора и рекламодателей: mosgorsud-torrent[собачка]yandex.ru
 Вход
ppkBB3cker v.2 © 2008-2014 @ PPK
[ Time : 0.059s | 16 Queries | GZIP : Off ]

Торрент трекер RUTOR.IN, Не можете зайти на rutor.org? Какой новый адрес рутор? Какое зеркало рутор? Не работает rutor.org и зеркала? Тогда наш торрент специально для вас. Rutor.in неофициальное зеркало rutor. В случае если у Вас заблокирован rutor или вдруг Вы не можете на него зайти, то Вы без труда сможете скачать бесплатно и без рекламы последние новинки кино, игр, сериалов и прочего у нас, на Rutor.in. Не нужно использовать прокси, чтобы зайти на рутор, достаточно воспользоваться нашим ресурсом. Все новые фильмы, игры, сериалы, книги и музыка за 2013 и 2014 годы через торрент бесплатно. Скачивайте фильмы в хорошем качестве, игры для пк, xbox, playstation без регистрации. У нас вы найдете новые Зарубежные сериалы и Русские сериалы 2013, 2014, 2015 годов. Оставайтесь с нами, качайте любимые фильмы, игры, сериалы, книги и музыку.