img image001 image001 image001 image001 image001 image001 image001 image001 image001 image001 image001 image001 image001 image001 image001

Planets Sun Sun Sun
Статистика раздачи
Автор: Nickolas3434 | Размер: 1.88 ГБ | Добавлен: 21 дек 2014
Раздают: 262    Качают: 29
Скачать торрент
Скачать торрент
Описание торрента

СообщениеДобавлено: 21 дек 2014 

Информация о фильме
Название: Медведи-соседи
Оригинальное название: Boonie Bears, to the Rescue!
Год выхода: 2014
Жанр: мультфильм, комедия, приключения
Режиссер: Динг Лианг, Фуюань Лю
Роли озвучивали:Анатолий Сергеев, Дмитрий Хрусталев, Тимур Батрутдинов
О фильме:
Медведям-соседям и вездесущему дровосеку придется стать нянями очутившегося у них в лесу ребенка. Все бы ничего, если бы эта девочка не была до этого похищена и упущена бандитами, которые жаждут ее вернуть и доставить заказчику — главному злодею. Теперь нашим героям предстоит сразиться с плохими парнями и помочь найти дорогу домой малышке.

Страна: Китай / Fantawild Animation, Le Vision Pictures
Продолжительность: 01:29:32
Перевод: Дублированный [Лицензия]
Файл
Качество: DVDRip (AVC)
Видео: MPEG-4 AVC, 2550 Кбит/с, 720x576@1024x576
Аудио: AC3, 6 ch, 448 Кбит/с
General
Unique ID : 224370352837101281926003150448394862030 (0xA8CC287A4D2463A484F1D2C8D3CD7DCE)
Complete name : C:Boonie.Bears.2014.D.DVDRip.AVC.ExKinoRay.mkv
Format : Matroska
Format version : Version 2
File size : 1.88 GiB
Duration : 1h 29mn
Overall bit rate : 2 998 Kbps
Movie name : Boonie Bears 2014 from ExKinoRay
Encoded date : UTC 2014-12-20 04:55:01
Writing application : mkvmerge v4.9.1 ('Ich will') built on Jul 11 2011 23:53:15
Writing library : libebml v1.2.1 + libmatroska v1.1.1
Video
ID : 1
Format : AVC
Format/Info : Advanced Video Codec
Format profile : High@L4.1
Format settings, CABAC : Yes
Format settings, ReFrames : 10 frames
Codec ID : V_MPEG4/ISO/AVC
Duration : 1h 29mn
Bit rate : 2 550 Kbps
Width : 720 pixels
Height : 576 pixels
Display aspect ratio : 16:9
Frame rate mode : Constant
Frame rate : 25.000 fps
Standard : PAL
Color space : YUV
Chroma subsampling : 4:2:0
Bit depth : 8 bits
Scan type : Progressive
Bits/(Pixel*Frame) : 0.246
Stream size : 1.56 GiB (83%)
Title : Enigma-Vladislav71
Writing library : x264 core 133 r2334 a3ac64b
Encoding settings : cabac=1 / ref=10 / deblock=1:-2:-2 / analyse=0x3:0x113 / me=umh / subme=11 / psy=1 / psy_rd=1.00:0.15 / mixed_ref=1 / me_range=32 / chroma_me=1 / trellis=2 / 8x8dct=1 / cqm=0 / deadzone=21,11 / fast_pskip=0 / chroma_qp_offset=-3 / threads=12 / lookahead_threads=3 / sliced_threads=0 / nr=0 / decimate=0 / interlaced=0 / bluray_compat=0 / constrained_intra=0 / bframes=12 / b_pyramid=2 / b_adapt=2 / b_bias=0 / direct=3 / weightb=1 / open_gop=0 / weightp=2 / keyint=250 / keyint_min=25 / scenecut=40 / intra_refresh=0 / rc=2pass / mbtree=0 / bitrate=2550 / ratetol=1.0 / qcomp=0.60 / qpmin=0 / qpmax=69 / qpstep=4 / cplxblur=20.0 / qblur=0.5 / ip_ratio=1.40 / pb_ratio=1.30 / aq=1:1.00
Default : Yes
Forced : No
Color primaries : BT.601 PAL
Transfer characteristics : BT.470 System B, BT.470 System G
Matrix coefficients : BT.601
Audio
ID : 2
Format : AC-3
Format/Info : Audio Coding 3
Mode extension : CM (complete main)
Format settings, Endianness : Big
Codec ID : A_AC3
Duration : 1h 29mn
Bit rate mode : Constant
Bit rate : 448 Kbps
Channel(s) : 6 channels
Channel positions : Front: L C R, Side: L R, LFE
Sampling rate : 48.0 KHz
Bit depth : 16 bits
Compression mode : Lossy
Stream size : 287 MiB (15%)
Title : DUB
Language : Russian
Default : Yes
Forced : No
Menu
00:00:00.000 : :Chapter 01
00:10:09.280 : :Chapter 02
00:20:58.320 : :Chapter 03
00:32:09.840 : :Chapter 04
00:43:04.280 : :Chapter 05
00:53:10.960 : :Chapter 06
01:04:06.800 : :Chapter 07
01:15:54.840 : :Chapter 08




Релиз от:
Авторы релиза:



   Похожие торренты   Торрент   Размер 
В этой теме нет новых непрочитанных сообщений. Медведи-соседи / Boonie Bears, to the Rescue! (2014) DVDRip-AVC от ExKinoRay | Лицензия

239 | 13

1.46 ГБ

В этой теме нет новых непрочитанных сообщений. Медведи-соседи / Boonie Bears, to the Rescue! (2014) DVDRip от ExKinoRay | Лицензия

208 | 10

749.3 МБ

В этой теме нет новых непрочитанных сообщений. Медведи-соседи / Boonie Bears, to the Rescue! (2014) DVDRip | Лицензия | D

734 | 123

618.6 МБ

В этой теме нет новых непрочитанных сообщений. Медведи-соседи / Boonie Bears, to the Rescue! (2014) DVDRip | Лицензия

1161 | 60

1.37 ГБ

В этой теме нет новых непрочитанных сообщений. Медведи-соседи / Boonie Bears, to the Rescue! (2014) DVD5 от New-Team | D | Лицензия

125 | 22

4.21 ГБ

В этой теме нет новых непрочитанных сообщений. Медведи-соседи / Boonie Bears, to the Rescue! (2014) WEB-DLRip | iTunes

3460 | 94

1.37 ГБ

В этой теме нет новых непрочитанных сообщений. Медведи - соседи / Boonie Bears [01-208 из 208] (2010-2014) WEB-DLRip от Generalfilm

66 | 61

30.51 ГБ




Вы не можете начинать темы
Вы не можете отвечать на сообщения
Вы не можете редактировать свои сообщения
Вы не можете удалять свои сообщения
Вы не можете добавлять вложения

Перейти:  
Для Мосгорсуда, Роскомнадзора и рекламодателей: mosgorsud-torrent[собачка]yandex.ru
 Вход
ppkBB3cker v.2 © 2008-2014 @ PPK
[ Time : 0.088s | 15 Queries | GZIP : Off ]

Торрент трекер RUTOR.IN, Не можете зайти на rutor.org? Какой новый адрес рутор? Какое зеркало рутор? Не работает rutor.org и зеркала? Тогда наш торрент специально для вас. Rutor.in неофициальное зеркало rutor. В случае если у Вас заблокирован rutor или вдруг Вы не можете на него зайти, то Вы без труда сможете скачать бесплатно и без рекламы последние новинки кино, игр, сериалов и прочего у нас, на Rutor.in. Не нужно использовать прокси, чтобы зайти на рутор, достаточно воспользоваться нашим ресурсом. Все новые фильмы, игры, сериалы, книги и музыка за 2013 и 2014 годы через торрент бесплатно. Скачивайте фильмы в хорошем качестве, игры для пк, xbox, playstation без регистрации. У нас вы найдете новые Зарубежные сериалы и Русские сериалы 2013, 2014, 2015 годов. Оставайтесь с нами, качайте любимые фильмы, игры, сериалы, книги и музыку.