img image001 image001 image001 image001 image001 image001 image001 image001 image001 image001 image001 image001 image001 image001 image001

Planets Sun Sun Sun
Статистика раздачи
Автор: Nickolas3434 | Размер: 749.3 МБ | Добавлен: 21 дек 2014
Раздают: 208    Качают: 10
Скачать торрент
Скачать торрент
Описание торрента

СообщениеДобавлено: 21 дек 2014 

Информация о фильме
Название: Медведи-соседи
Оригинальное название: Boonie Bears, to the Rescue!
Год выхода: 2014
Жанр: мультфильм, комедия, приключения
Режиссер: Динг Лианг, Фуюань Лю
Роли озвучивали:Анатолий Сергеев, Дмитрий Хрусталев, Тимур Батрутдинов
О фильме:
Медведям-соседям и вездесущему дровосеку придется стать нянями очутившегося у них в лесу ребенка. Все бы ничего, если бы эта девочка не была до этого похищена и упущена бандитами, которые жаждут ее вернуть и доставить заказчику — главному злодею. Теперь нашим героям предстоит сразиться с плохими парнями и помочь найти дорогу домой малышке.

Страна: Китай / Fantawild Animation, Le Vision Pictures
Продолжительность: 01:29:32
Перевод: Дублированный [Лицензия]
Файл
Кодек: XviD
Качество: DVDRip
Видео: 1032 Кбит/с, 656x368, 25 кадр/с
Звук: МР3, 2 ch, 128 Кбит/с
Общее
Полное имя : D:ВидеоBoonie.Bears.to.the.Rescue.2014.DVDRip by Vovan366(ExKinoRay).avi
Формат : AVI
Формат/Информация : Audio Video Interleave
Размер файла : 749 Мбайт
Продолжительность : 1 ч. 29 м.
Общий поток : 1170 Кбит/сек
Программа кодирования : VirtualDubMod 1.5.10.3 | www.virtualdub-fr.org || (build 2550/release)
Библиотека кодирования : VirtualDubMod build 2550/release
Видео
Идентификатор : 0
Формат : MPEG-4 Visual
Профиль формата : Advanced Simple@L5
Параметр BVOP формата : 2
Параметр QPel формата : Нет
Параметр GMC формата : Без точки перехода
Параметр матрицы формата : Выборочная
Идентификатор кодека : XVID
Идентификатор кодека/Подсказка : XviD
Продолжительность : 1 ч. 29 м.
Битрейт : 1032 Кбит/сек
Ширина : 656 пикселей
Высота : 368 пикселей
Соотношение сторон : 16:9
Частота кадров : 25,000 кадров/сек
Цветовое пространство : YUV
Субдискретизация насыщенности : 4:2:0
Битовая глубина : 8 бит
Тип развёртки : Прогрессивная
Метод сжатия : С потерями
Бит/(Пиксели*Кадры) : 0.171
Размер потока : 661 Мбайт (88%)
Библиотека кодирования : XviD 73
Аудио
Идентификатор : 1
Формат : MPEG Audio
Версия формата : Version 1
Профиль формата : Layer 3
Идентификатор кодека : 55
Идентификатор кодека/Подсказка : MP3
Продолжительность : 1 ч. 29 м.
Вид битрейта : Постоянный
Битрейт : 128 Кбит/сек
Каналы : 2 канала
Частота : 48,0 КГц
Метод сжатия : С потерями
Размер потока : 82,0 Мбайт (11%)
Выравнивание : Соединение по промежуткам
Продолжительность промежутка : 40 мс. (1,00 видеокадр)
Время предзагрузки промежутка : 504 мс.
Библиотека кодирования : LAME3.99r
Настройки программы : -m s -V 4 -q 2 -lowpass 17 -b 128



Релиз от:
Rip by: Vovan366



   Похожие торренты   Торрент   Размер 
В этой теме нет новых непрочитанных сообщений. Медведи-соседи / Boonie Bears, to the Rescue! (2014) DVDRip-AVC от ExKinoRay | Лицензия

239 | 13

1.46 ГБ

В этой теме нет новых непрочитанных сообщений. Медведи-соседи / Boonie Bears, to the Rescue! (2014) DVDRip-AVC от ExKinoRay | Лицензия

262 | 29

1.88 ГБ

В этой теме нет новых непрочитанных сообщений. Медведи-соседи / Boonie Bears, to the Rescue! (2014) DVDRip | Лицензия | D

844 | 128

618.6 МБ

В этой теме нет новых непрочитанных сообщений. Медведи-соседи / Boonie Bears, to the Rescue! (2014) DVDRip | Лицензия

1161 | 60

1.37 ГБ

В этой теме нет новых непрочитанных сообщений. Медведи-соседи / Boonie Bears, to the Rescue! (2014) DVD5 от New-Team | D | Лицензия

125 | 22

4.21 ГБ

В этой теме нет новых непрочитанных сообщений. Медведи-соседи / Boonie Bears, to the Rescue! (2014) WEB-DLRip | iTunes

3460 | 94

1.37 ГБ

В этой теме нет новых непрочитанных сообщений. Медведи - соседи / Boonie Bears [01-208 из 208] (2010-2014) WEB-DLRip от Generalfilm

66 | 61

30.51 ГБ




Вы не можете начинать темы
Вы не можете отвечать на сообщения
Вы не можете редактировать свои сообщения
Вы не можете удалять свои сообщения
Вы не можете добавлять вложения

Перейти:  
Для Мосгорсуда, Роскомнадзора и рекламодателей: mosgorsud-torrent[собачка]yandex.ru
 Вход
ppkBB3cker v.2 © 2008-2014 @ PPK
[ Time : 0.037s | 15 Queries | GZIP : Off ]

Торрент трекер RUTOR.IN, Не можете зайти на rutor.org? Какой новый адрес рутор? Какое зеркало рутор? Не работает rutor.org и зеркала? Тогда наш торрент специально для вас. Rutor.in неофициальное зеркало rutor. В случае если у Вас заблокирован rutor или вдруг Вы не можете на него зайти, то Вы без труда сможете скачать бесплатно и без рекламы последние новинки кино, игр, сериалов и прочего у нас, на Rutor.in. Не нужно использовать прокси, чтобы зайти на рутор, достаточно воспользоваться нашим ресурсом. Все новые фильмы, игры, сериалы, книги и музыка за 2013 и 2014 годы через торрент бесплатно. Скачивайте фильмы в хорошем качестве, игры для пк, xbox, playstation без регистрации. У нас вы найдете новые Зарубежные сериалы и Русские сериалы 2013, 2014, 2015 годов. Оставайтесь с нами, качайте любимые фильмы, игры, сериалы, книги и музыку.