img image001 image001 image001 image001 image001 image001 image001 image001 image001 image001 image001 image001 image001 image001 image001

Planets Sun Sun Sun
Статистика раздачи
Автор: Nickolas3434 | Размер: 4.55 ГБ | Добавлен: 21 дек 2014
Раздают: 467    Качают: 81
Скачать торрент
Скачать торрент
Описание торрента

СообщениеДобавлено: 21 дек 2014 

«Некогда скучать!»


Страна: Сингапур / VROOMIZ@SAMG/EBS/SKB/KOSSA
Год выпуска: 2012
Жанр: мультфильм, приключения, детский
Продолжительность: ~ 00:13:10 / серия
Перевод: Профессиональный (дублированный)
Субтитры: нет
Оригинальная аудиодорожка: нет


Режиссер: Йонг Чул Джо / Yong Chul Joe


Озвучивали: неизвестно
Описание: Добро пожаловать в фантастический мир Врумиз. Здесь, в городе Зиппи Сити, вы познакомитесь с машинками-зверюшками — гепардом Спиди, обезьянкой Банги, олененком Фаррой, пандой ПиТи и жирафом Джиральдиной. Спиди — самый быстрый малый в Зиппи Сити. Он отважно гоняет по суперсовременному гоночному треку в Зиппи Сити и верит, что станет чемпионом. Жизнь Врумиз полна приключений, опасностей и сюрпризов. Спиди и его друзья, решая проблемы Зиппи Сити, с легкостью выходят из любой ситуации, проявляя невероятную выдумку и изобретательность. Пристегните ремни безопасности и поехали на прогулку с Врумиз! Врум-врум!

Качество: DVDRip / DVD5 R5 от компании "Мистерия звука"
Формат: AVI
Видео: 704x400 (16:9), 25.000 fps, XviD ~ 1690 kbps avg, 0.240 bit/pixel
Аудио: 48 kHz, Dolby AC3 2.0 192 kbps, русский
Релиз от:
01. Пропавшие проказники
02. В поисках веселья
03. Сила воображения
04. Спасение на скорость
05. Клуб не для всех
06. Привидение каньона Карбюраторов
07. Самый лучший полицейский
08. Унесённые ветром
09. Загадочная дорога
10. Лунный Банги
11. Забытый друг
12. Грязная катастрофа
13. День розыгрышей
14. Ночные приключения
15. Гаражная распродажа
16. Копировальная машина
17. Маленький врунишка
18. Остуди двигатель
19. Капитан чистоты
20. Снежный день
21. Фантастика
22. Юные детективы
23. Летняя история
24. Дух соперничества
25. На морском причале
26. Легенда о драконе

General
Format : AVI
Format/Info : Audio Video Interleave
File size : 179 MiB
Duration : 13mn 12s
Overall bit rate : 1 892 Kbps
Writing application : VirtualDubModRus 1.5.10.2 (build 2542/release)
Writing library : VirtualDubMod build 2542/release
Video
ID : 0
Format : MPEG-4 Visual
Format profile : Advanced Simple@L5
Format settings, BVOP : 1
Format settings, QPel : No
Format settings, GMC : No warppoints
Format settings, Matrix : Custom
Codec ID : XVID
Codec ID/Hint : XviD
Duration : 13mn 12s
Bit rate : 1 690 Kbps
Width : 704 pixels
Height : 400 pixels
Display aspect ratio : 16:9
Frame rate : 25.000 fps
Color space : YUV
Chroma subsampling : 4:2:0
Bit depth : 8 bits
Scan type : Progressive
Compression mode : Lossy
Bits/(Pixel*Frame) : 0.240
Stream size : 160 MiB (89%)
Writing library : XviD 73
Audio
ID : 1
Format : AC-3
Format/Info : Audio Coding 3
Mode extension : CM (complete main)
Format settings, Endianness : Big
Codec ID : 2000
Duration : 13mn 12s
Bit rate mode : Constant
Bit rate : 192 Kbps
Channel(s) : 2 channels
Channel positions : Front: L R
Sampling rate : 48.0 KHz
Bit depth : 16 bits
Compression mode : Lossy
Stream size : 18.1 MiB (10%)
Alignment : Split accross interleaves
Interleave, duration : 40 ms (1.00 video frame)
Interleave, preload duration : 500 ms





   Похожие торренты   Торрент   Размер 
В этой теме нет новых непрочитанных сообщений. Врумиз / Vroomiz [S01-02: 01-52 из 52] (2012...) DVDRip-AVC от New-Team | D | лицензия

245 | 60

9.24 ГБ

В этой теме нет новых непрочитанных сообщений. Врумиз / Vroomiz (2012) DVDRip-AVC от New-Team | D | лицензия

104 | 25

4.55 ГБ

В этой теме нет новых непрочитанных сообщений. Врумиз / Vroomiz [S01-02: 01-52 из 52] (2012...) DVDRip от New-Team | D | лицензия

128 | 71

9.25 ГБ

В этой теме нет новых непрочитанных сообщений. Врумиз / Vroomiz [S01-02] (2012) 4xDVD5 от New-Team | D | Лицензия

3 | 0

16.99 ГБ

В этой теме нет новых непрочитанных сообщений. Врумиз / Vroomiz (2012) 2xDVD5 от New-Team | D | Лицензия

233 | 30

8.26 ГБ

В этой теме нет новых непрочитанных сообщений. Врумиз / Vroomiz [02х01-16 из 16] (2012) WEB-DLRip-AVC от ExKinoRay

225 | 24

3.15 ГБ

В этой теме нет новых непрочитанных сообщений. Шопинг-тур (2012) DVDRip-AVC от New-Team | лицензия

30 | 24

1.38 ГБ




Вы не можете начинать темы
Вы не можете отвечать на сообщения
Вы не можете редактировать свои сообщения
Вы не можете удалять свои сообщения
Вы не можете добавлять вложения

Перейти:  
Для Мосгорсуда, Роскомнадзора и рекламодателей: mosgorsud-torrent[собачка]yandex.ru
 Вход
ppkBB3cker v.2 © 2008-2014 @ PPK
[ Time : 0.037s | 15 Queries | GZIP : Off ]
CGP output time : 0.042s | 5 Queries | GZIP : Off

Торрент трекер RUTOR.IN, Не можете зайти на rutor.org? Какой новый адрес рутор? Какое зеркало рутор? Не работает rutor.org и зеркала? Тогда наш торрент специально для вас. Rutor.in неофициальное зеркало rutor. В случае если у Вас заблокирован rutor или вдруг Вы не можете на него зайти, то Вы без труда сможете скачать бесплатно и без рекламы последние новинки кино, игр, сериалов и прочего у нас, на Rutor.in. Не нужно использовать прокси, чтобы зайти на рутор, достаточно воспользоваться нашим ресурсом. Все новые фильмы, игры, сериалы, книги и музыка за 2013 и 2014 годы через торрент бесплатно. Скачивайте фильмы в хорошем качестве, игры для пк, xbox, playstation без регистрации. У нас вы найдете новые Зарубежные сериалы и Русские сериалы 2013, 2014, 2015 годов. Оставайтесь с нами, качайте любимые фильмы, игры, сериалы, книги и музыку.