img image001 image001 image001 image001 image001 image001 image001 image001 image001 image001 image001 image001 image001 image001 image001

Planets Sun Sun Sun
Статистика раздачи
Автор: Nickolas3434 | Размер: 7.05 ГБ | Добавлен: 23 дек 2014
Раздают: 201    Качают: 19
Скачать торрент
Скачать торрент
Описание торрента

СообщениеДобавлено: 23 дек 2014 




Семейка монстров
The Boxtrolls



#77
Год выпуска: 2014
Страна: США (Focus Features, Laika Entertainment)
Жанр: Мультфильм, Фэнтези, Комедия, Приключения, Семейный
Продолжительность: 1:36:10
Перевод: Профессиональный дублированный - iTunes
Режиссеры: Грэхэм Эннэйбл, Энтони Стакки / Graham Annable, Anthony Stacchi


озвучивали (дублировали):

Archibald Snatcher - Бен Кингсли
Lord Portley-Rind - Джаред Харрис
Mr. Trout - Ник Фрост
Mr. Pickles - Ричард Айоади
Mr. Gristle - Трэйси Морган
Fish / Wheels / Bucket - Ди Брэдли Бейкер
Shoe / Sparky - Стивен Блум
Oil Can / Knickers - Ника Футтерман
Eggs - Айзек Хемпстед-Райт
Winnie - Эль Фаннинг
Herbert Trubshaw - Саймон Пегг (Александр Гаврилин)
Fragile / Sweets - Пэт Фрэли
Clocks / Specs - Фред Татаскьор
Baby Eggs - Макс Митчелл
Sir Langsdale - Морис ЛаМарш
Sir Broderick / Male Workman 1 / Male Workman 2 - Джеймс Урбаняк
Boulanger / Male Aristocrat - Брайан Джордж
Lady Portley-Rind - Тони Коллетт
Также дублировали: Кирилл Туранский, Даниил Эльдаров, Владимир Антипов



Описание: Ему не повезло родиться в роскошном замке. Вместе с семейкой забавных монстров юноша поселился прямо под мостовой. Изысканные костюмы ему заменила обычная коробка. Зато каждую ночь он мог разгуливать по темным улицам в поисках новых приключений. Но однажды он встретил очаровательную девчушку из высшего общества — и мир вокруг изменился навсегда.
Мультфильм снят на основе книги Алана Сноу «Здесь живут монстры».
Для украшения декораций фильма было использовано 55 сортов бутафорского сыра, тщательно скопированного с настоящих сырных головок.
[*]Лица кукол собирались из деталей, напечатанных на 3D-принтерах, и это давало аниматорам быстрый доступ к запредельному количеству вариантов мимики. У главного героя, например, было 1,4 миллиона потенциальных выражений лица.

Премьера: 31 августа 2014 (25 сентября 2014)
Релиз на Blu-Ray (DVD) (Россия): 5 февраля 2015
Бюджет: $60 000 000
Кассовые сборы: $107 668 464





Качество: BDRip (by Ash61)
Контейнер: MKV
Формат 3D: Half OverUnder / Вертикальная анаморфная стереопара
Порядок ракурсов: левый ракурс первый
Видео кодек: x264
Аудио кодек: AC3


Видео: AVC / 23,976 fps / 1920х1080p / ~9.3 Mbps
Аудио:
#1 - Русский / AC3 / 48 KHz / 5.1 ch / 384 Kbps (Дубляж - iTunes)
#2 - Английский / AC3 / 48 KHz / 5.1 ch / 640 Kbps (Original)
Субтитры (внешние SRT UTF-8):
#1 - English Full (i)
#2 - English SDH (i)
General
Unique ID : 174475412227707492078891679073210568455 (0x8342BDFA0F651923B8CC1C1BC3558F07)
Complete name : E:TheBoxtrolls(2014)3D-HalfOU(Ash61)iTunesTheBoxtrolls(2014)3D-HalfOU(Ash61)iTunes.mkv
Format : Matroska
Format version : Version 2
File size : 7.05 GiB
Duration : 1h 36mn
Overall bit rate : 10.5 Mbps
Movie name : Семейка монстров / The Boxtrolls (2014) 3D
Encoded date : UTC 2014-12-21 08:20:54
Writing application : mkvmerge v5.8.0 ('No Sleep / Pillow') built on Sep 2 2012 15:37:04
Writing library : libebml v1.2.3 + libmatroska v1.3.0
Video
ID : 1
Format : AVC
Format/Info : Advanced Video Codec
Format profile : High@L4.1
Format settings, CABAC : Yes
Format settings, ReFrames : 4 frames
Codec ID : V_MPEG4/ISO/AVC
Duration : 1h 36mn
Bit rate : 9 263 Kbps
Width : 1 920 pixels
Height : 1 080 pixels
Display aspect ratio : 16:9
Frame rate mode : Constant
Frame rate : 23.976 fps
Color space : YUV
Chroma subsampling : 4:2:0
Bit depth : 8 bits
Scan type : Progressive
Bits/(Pixel*Frame) : 0.186
Stream size : 6.22 GiB (88%)
Title : BDRip by Ash61
Writing library : x264 core 138 r2358 9e941d1
Encoding settings : cabac=1 / ref=4 / deblock=1:-3:-3 / analyse=0x3:0x113 / me=umh / subme=10 / psy=1 / psy_rd=1.00:0.00 / mixed_ref=1 / me_range=32 / chroma_me=1 / trellis=2 / 8x8dct=1 / cqm=0 / deadzone=21,11 / fast_pskip=1 / chroma_qp_offset=-2 / threads=12 / lookahead_threads=2 / sliced_threads=0 / nr=0 / decimate=1 / interlaced=0 / bluray_compat=0 / constrained_intra=0 / bframes=8 / b_pyramid=2 / b_adapt=2 / b_bias=0 / direct=3 / weightb=1 / open_gop=0 / weightp=2 / keyint=250 / keyint_min=23 / scenecut=40 / intra_refresh=0 / rc_lookahead=60 / rc=crf / mbtree=1 / crf=17.5 / qcomp=0.70 / qpmin=0 / qpmax=69 / qpstep=4 / vbv_maxrate=40000 / vbv_bufsize=30000 / crf_max=0.0 / nal_hrd=none / frame-packing=4 / ip_ratio=1.40 / aq=1:0.70
Language : English
Default : Yes
Forced : No
Audio #1
ID : 2
Format : AC-3
Format/Info : Audio Coding 3
Mode extension : CM (complete main)
Format settings, Endianness : Big
Codec ID : A_AC3
Duration : 1h 36mn
Bit rate mode : Constant
Bit rate : 384 Kbps
Channel(s) : 6 channels
Channel positions : Front: L C R, Side: L R, LFE
Sampling rate : 48.0 KHz
Bit depth : 16 bits
Compression mode : Lossy
Stream size : 264 MiB (4%)
Title : Дубляж - iTunes
Language : Russian
Default : Yes
Forced : No
Audio #2
ID : 3
Format : AC-3
Format/Info : Audio Coding 3
Mode extension : CM (complete main)
Format settings, Endianness : Big
Codec ID : A_AC3
Duration : 1h 36mn
Bit rate mode : Constant
Bit rate : 640 Kbps
Channel(s) : 6 channels
Channel positions : Front: L C R, Side: L R, LFE
Sampling rate : 48.0 KHz
Bit depth : 16 bits
Compression mode : Lossy
Stream size : 440 MiB (6%)
Title : Original - BD 3D
Language : English
Default : No
Forced : No
Menu
00:00:00.000 : :1
00:05:52.143 : :2
00:11:53.296 : :3
00:15:21.337 : :4
00:20:22.805 : :5
00:27:08.502 : :6
00:32:25.944 : :7
00:36:26.518 : :8
00:41:45.920 : :9
00:45:45.284 : :10
00:51:57.281 : :11
00:56:00.107 : :12
01:02:03.887 : :13
01:07:26.209 : :14
01:11:27.867 : :15
01:16:27.875 : :16
01:22:05.671 : :17
01:25:30.375 : :18
01:27:33.248 : :19
01:30:00.687 : :20





















   Похожие торренты   Торрент   Размер 
В этой теме нет новых непрочитанных сообщений. Семейка монстров / The Boxtrolls (2014) BDRip 1080p от Ash61 | 3D-Video | halfSBS | iTunes

321 | 49

8.7 ГБ

В этой теме нет новых непрочитанных сообщений. Семейка монстров / The Boxtrolls (2014) BDRip 1080p | iTunes

421 | 18

7.63 ГБ

В этой теме нет новых непрочитанных сообщений. Семейка монстров / The Boxtrolls (2014) WEB-DL 1080p | iTunes

2045 | 131

3.71 ГБ

В этой теме нет новых непрочитанных сообщений. Семейка монстров / The Boxtrolls (2014) BDRip-AVC от HELLYWOOD | iTunes

467 | 21

2.18 ГБ

В этой теме нет новых непрочитанных сообщений. Семейка монстров / The Boxtrolls (2014) BDRip 720p от KinoRay | iTunes

716 | 79

4.72 ГБ

В этой теме нет новых непрочитанных сообщений. Семейка монстров / The Boxtrolls (2014) BDRip 720p от Leonardo and Scarabey | iTunes

187 | 21

3.99 ГБ

В этой теме нет новых непрочитанных сообщений. Семейка монстров / The Boxtrolls (2014) BDRip 1080p | Лицензия

128 | 4

11.67 ГБ




Вы не можете начинать темы
Вы не можете отвечать на сообщения
Вы не можете редактировать свои сообщения
Вы не можете удалять свои сообщения
Вы не можете добавлять вложения

Перейти:  
Для Мосгорсуда, Роскомнадзора и рекламодателей: mosgorsud-torrent[собачка]yandex.ru
 Вход
ppkBB3cker v.2 © 2008-2014 @ PPK
[ Time : 0.046s | 18 Queries | GZIP : Off ]

Торрент трекер RUTOR.IN, Не можете зайти на rutor.org? Какой новый адрес рутор? Какое зеркало рутор? Не работает rutor.org и зеркала? Тогда наш торрент специально для вас. Rutor.in неофициальное зеркало rutor. В случае если у Вас заблокирован rutor или вдруг Вы не можете на него зайти, то Вы без труда сможете скачать бесплатно и без рекламы последние новинки кино, игр, сериалов и прочего у нас, на Rutor.in. Не нужно использовать прокси, чтобы зайти на рутор, достаточно воспользоваться нашим ресурсом. Все новые фильмы, игры, сериалы, книги и музыка за 2013 и 2014 годы через торрент бесплатно. Скачивайте фильмы в хорошем качестве, игры для пк, xbox, playstation без регистрации. У нас вы найдете новые Зарубежные сериалы и Русские сериалы 2013, 2014, 2015 годов. Оставайтесь с нами, качайте любимые фильмы, игры, сериалы, книги и музыку.
cron